<?xml version="1.0" standalone="no"?>
<!DOCTYPE svg PUBLIC "-//W3C//DTD SVG 1.1//EN" "http://www.w3.org/Graphics/SVG/1.1/DTD/svg11.dtd" >
<svg xmlns="http://www.w3.org/2000/svg">
<metadata>
Created by FontPrep 20130207 at Wed Feb  5 11:50:58 2014
 By Paul
HTF Gotham  Copr. 2000 The Hoefler Type Foundry, Inc. Info: www.typography.com
</metadata>
<defs>
<font id="0fdc6c734a7ca54436fb28af9ab2f202" horiz-adv-x='1024' >
  <font-face 
    font-family="GothamLight"
    font-weight="300"
    font-stretch="normal"
    units-per-em="2048"
    panose-1="2 0 6 3 3 0 0 2 0 4"
    ascent="1638"
    descent="-410"
    x-height="1044"
    cap-height="1434"
    bbox="-137 -336.511 2345 1839"
    underline-thickness="40"
    underline-position="-231"
    unicode-range="U+0020-FB02"
  />
<missing-glyph 
 />
    <glyph glyph-name="fi" unicode="fi" horiz-adv-x="1251" 
d="M934 1454h125v-137h-125v137zM563 1409q-211 0 -211 -264v-101h365v-92h-365v-952h-100v952h-152v92h152v103q0 180 87 267t224 87q86 0 156 -24v-95q-87 27 -156 27zM946 1044h101v-1044h-101v1044z" />
    <glyph glyph-name="fl" unicode="fl" horiz-adv-x="1251" 
d="M563 1409q-211 0 -211 -264v-101h365v-92h-365v-952h-100v952h-152v92h152v103q0 180 87 267t224 87q86 0 156 -24v-95q-87 27 -156 27zM946 1495h101v-1495h-101v1495z" />
    <glyph glyph-name=".notdef" 
 />
    <glyph glyph-name=".null" horiz-adv-x="0" 
 />
    <glyph glyph-name="nonmarkingreturn" horiz-adv-x="614" 
 />
    <glyph glyph-name="space" unicode=" " horiz-adv-x="614" 
 />
    <glyph glyph-name="exclam" unicode="!" horiz-adv-x="516" 
d="M199 1434h118v-144l-30 -915h-58l-30 915v144zM190 174h136v-174h-136v174z" />
    <glyph glyph-name="quotedbl" unicode="&#x22;" horiz-adv-x="839" 
d="M713 1434v-11l-146 -510h-59l72 521h133zM344 1434v-11l-145 -510h-60l72 521h133z" />
    <glyph glyph-name="numbersign" unicode="#" horiz-adv-x="1433" 
d="M100 383v96h265l84 484h-267v96h283l63 375h99l-64 -375h424l64 375h98l-64 -375h246v-96h-262l-84 -484h264v-96h-280l-66 -383h-98l65 383h-424l-65 -383h-98l65 383h-248zM887 479l84 484h-424l-84 -484h424z" />
    <glyph glyph-name="dollar" unicode="$" horiz-adv-x="1294" 
d="M178 1061v4q0 154 123 259.5t307 109.5v118h99v-122q119 -10 211 -52.5t184 -115.5l-68 -80q-150 135 -332 155v-575q233 -49 338 -140.5t105 -240.5v-4q0 -159 -120.5 -264t-317.5 -113v-201h-99v203q-264 23 -485 219l67 80q96 -90 196.5 -142.5t225.5 -62.5v582
q-231 51 -332.5 140t-101.5 243zM283 1073v-4q0 -106 68.5 -172.5t260.5 -114.5v559q-150 -4 -239.5 -80.5t-89.5 -187.5zM1040 369v4q0 112 -72.5 177t-265.5 107v-565q151 4 244.5 81t93.5 196z" />
    <glyph glyph-name="percent" unicode="%" horiz-adv-x="1687" 
d="M200.5 824.5q-87.5 107.5 -87.5 254.5v4q0 151 90 259t228 108t225 -109.5t87 -253.5v-4q0 -149 -88.5 -257.5t-227.5 -108.5t-226.5 107.5zM1315 1434h110l-1052 -1434h-111zM944 346v4q0 151 90.5 259t227.5 108t225 -109t88 -254v-4q0 -150 -89 -258t-228 -108
t-226.5 107t-87.5 255zM637 1079v4q0 121 -63 200t-151 79q-87 0 -145.5 -81t-58.5 -194v-4q0 -122 62.5 -200t149.5 -78q88 0 147 79.5t59 194.5zM1263 72q86 0 145.5 77.5t59.5 196.5v4q0 184 -84 231.5t-128 47.5q-87 0 -146 -80t-59 -195v-4q0 -187 84 -232.5t128 -45.5
z" />
    <glyph glyph-name="ampersand" unicode="&#x26;" horiz-adv-x="1425" 
d="M100 377v4q0 281 371 420q-82 90 -121 163.5t-39 163.5v5q0 137 100 231t249 94t244 -91t95 -220v-4q0 -135 -93 -224.5t-259 -146.5l377 -387q97 136 186 348l97 -39q-105 -239 -213 -381l264 -272l-84 -70l-248 256q-212 -247 -485 -247q-190 0 -315.5 111.5
t-125.5 285.5zM893 1139v4q0 96 -64.5 160.5t-168.5 64.5t-173 -66.5t-69 -164.5v-4q0 -70 36 -131.5t130 -163.5q309 98 309 301zM207 385v-4q0 -132 94.5 -220.5t264.5 -88.5q98 0 200 60.5t192 164.5l-423 438q-172 -59 -250 -152.5t-78 -197.5z" />
    <glyph glyph-name="quotesingle" unicode="'" horiz-adv-x="471" 
d="M344 1434v-11l-145 -510h-60l72 521h133z" />
    <glyph glyph-name="parenleft" unicode="(" horiz-adv-x="880" 
d="M252 587q0 -500 504 -808l-43 -68q-272 154 -420 375t-148 501.5t147.5 502t420.5 374.5l43 -67q-504 -310 -504 -810z" />
    <glyph glyph-name="parenright" unicode=")" horiz-adv-x="880" 
d="M629 588q0 499 -504 809l43 67q272 -154 419.5 -375t147.5 -501.5t-147.5 -501.5t-419.5 -375l-43 68q504 310 504 809z" />
    <glyph glyph-name="asterisk" unicode="*" horiz-adv-x="880" 
d="M416 1092l-217 -148l-45 76l241 115l-241 114l45 76l217 -147l-19 260h86l-18 -260l217 147l45 -76l-242 -114l242 -115l-45 -76l-217 148l18 -261h-86z" />
    <glyph glyph-name="plus" unicode="+" horiz-adv-x="1310" 
d="M604 672h-444v98h444v440h103v-440h444v-98h-444v-441h-103v441z" />
    <glyph glyph-name="comma" unicode="," horiz-adv-x="471" 
d="M168 0v174h135v-151q0 -96 -39 -151.5t-131 -90.5l-24 51q66 35 92 72t22 96h-55z" />
    <glyph glyph-name="hyphen" unicode="-" horiz-adv-x="835" 
d="M143 666h549v-115h-549v115z" />
    <glyph glyph-name="hyphen" unicode="&#xad;" horiz-adv-x="835" 
d="M143 666h549v-115h-549v115z" />
    <glyph glyph-name="period" unicode="." horiz-adv-x="471" 
d="M168 174h135v-174h-135v174z" />
    <glyph glyph-name="slash" unicode="/" 
d="M930 1634h100l-967 -1896h-100z" />
    <glyph glyph-name="zero" unicode="0" horiz-adv-x="1454" 
d="M133 713v4q0 147 42 282.5t120 236.5t187.5 161.5t310.5 60.5t364.5 -214.5t163.5 -522.5v-4q0 -309 -166.5 -525.5t-431 -216.5t-427.5 215t-163 523zM1210 713v4q0 264 -97 400t-187 190.5t-252.5 54.5t-296 -190t-133.5 -451v-4q0 -262 135 -453.5t350 -191.5
t348 189.5t133 451.5z" />
    <glyph glyph-name="one" unicode="1" horiz-adv-x="686" 
d="M471 1444v-1444h-104v1333l-277 -94l-29 84l328 121h82z" />
    <glyph glyph-name="two" unicode="2" horiz-adv-x="1208" 
d="M950 1059q0 130 -94 215.5t-230 85.5t-232.5 -68.5t-186.5 -197.5l-80 53q100 153 216.5 230t298.5 77t301.5 -114.5t119.5 -278.5v-4q0 -143 -78.5 -258t-279.5 -299l-439 -398h811v-102h-979v80l535 483q257 234 287 333t30 163z" />
    <glyph glyph-name="three" unicode="3" horiz-adv-x="1249" 
d="M993 389v4q0 146 -123.5 229t-322.5 83h-78l-27 59l494 569h-752v101h897v-76l-485 -555q217 -13 362.5 -115.5t145.5 -290.5v-4q0 -183 -137.5 -300.5t-321.5 -117.5q-335 0 -534 258l82 68q177 -229 446 -229q146 0 250 89t104 228z" />
    <glyph glyph-name="four" unicode="4" horiz-adv-x="1359" 
d="M911 350h-776l-37 80l820 1014h96v-1002h233v-92h-233v-350h-103v350zM911 442v848l-684 -848h684z" />
    <glyph glyph-name="five" unicode="5" horiz-adv-x="1239" 
d="M627 872q208 0 349.5 -120.5t141.5 -311.5v-4q0 -200 -141.5 -330.5t-358.5 -130.5q-147 0 -277 68t-224 164l76 76q211 -211 430 -211q171 0 278 105t107 255v4q0 149 -110.5 244.5t-276.5 95.5q-167 0 -330 -90l-82 53l41 695h805v-103h-711l-35 -536q154 77 318 77z
" />
    <glyph glyph-name="six" unicode="6" horiz-adv-x="1314" 
d="M238 618q162 267 448 267q201 0 347.5 -123.5t146.5 -310.5v-5q0 -202 -145 -336.5t-359 -134.5q-108 0 -202 38.5t-150 94.5q-103 103 -148 228t-45 342v4q0 330 117 492.5t225.5 223t236.5 60.5t226 -44t192 -122l-67 -82q-84 74 -167.5 113t-189.5 39t-195 -54.5
t-185 -207.5t-86 -482zM1069 442v4q0 149 -112 247t-280 98t-282 -109.5t-114 -245.5v-4q0 -155 116 -257.5t286 -102.5t278 106.5t108 263.5z" />
    <glyph glyph-name="seven" unicode="7" horiz-adv-x="1202" 
d="M139 1331v103h951v-78l-654 -1356h-117l652 1331h-832z" />
    <glyph glyph-name="eight" unicode="8" horiz-adv-x="1290" 
d="M113 383v4q0 120 88 214.5t229 139.5q-111 42 -189.5 129t-78.5 205v4q0 161 146 268t336.5 107t337 -106.5t146.5 -268.5v-4q0 -173 -107.5 -243t-160.5 -91q218 -74 268 -182t50 -172v-4q0 -178 -153 -290.5t-380 -112.5t-379.5 113t-152.5 290zM1018 1075v4
q0 122 -107 200.5t-266.5 78.5t-266 -79t-106.5 -200v-4q0 -128 109 -211.5t264 -83.5t264 83.5t109 211.5zM952 164.5q115 88.5 115 214.5v4q0 133 -121.5 220t-300.5 87t-300.5 -87t-121.5 -220v-4q0 -125 114.5 -214t307 -89t307.5 88.5z" />
    <glyph glyph-name="nine" unicode="9" horiz-adv-x="1314" 
d="M135 973v4q0 201 142 341t362 140q287 0 416 -202t129 -502v-4q0 -338 -167 -556.5t-417 -218.5q-135 0 -238.5 51.5t-193.5 127.5l68 82q184 -164 366 -164q218 0 352.5 208.5t122.5 530.5q-156 -276 -446 -276q-217 0 -356.5 126.5t-139.5 311.5zM922 739
q112 110 112 254v4q0 153 -115 259t-288.5 106t-279 -112t-105.5 -269v-4q0 -153 111 -250.5t282 -97.5t283 110z" />
    <glyph glyph-name="colon" unicode=":" horiz-adv-x="491" 
d="M178 1044h135v-174h-135v174zM178 174h135v-174h-135v174z" />
    <glyph glyph-name="semicolon" unicode=";" horiz-adv-x="491" 
d="M178 1044h135v-174h-135v174zM178 0v174h135v-151q0 -96 -38.5 -151.5t-131.5 -90.5l-24 51q66 35 92.5 72t21.5 96h-55z" />
    <glyph glyph-name="semicolon" unicode="&#x37e;" horiz-adv-x="491" 
d="M178 1044h135v-174h-135v174zM178 0v174h135v-151q0 -96 -38.5 -151.5t-131.5 -90.5l-24 51q66 35 92.5 72t21.5 96h-55z" />
    <glyph glyph-name="less" unicode="&#x3c;" horiz-adv-x="1310" 
d="M150 680v82l950 493v-110l-826 -422l826 -426v-111z" />
    <glyph glyph-name="equal" unicode="=" horiz-adv-x="1310" 
d="M190 1004h930v-105h-930v105zM190 543h930v-105h-930v105z" />
    <glyph glyph-name="greater" unicode="&#x3e;" horiz-adv-x="1310" 
d="M211 297l825 422l-825 426v110l950 -493v-82l-950 -494v111z" />
    <glyph glyph-name="question" unicode="?" horiz-adv-x="1093" 
d="M539 1358q-224 0 -396 -211l-73 61q88 109 198.5 176.5t292.5 67.5t304 -116t122 -283v-4q0 -180 -120.5 -288t-313.5 -130l-18 -256h-66l-27 332l11 10q205 4 315.5 92t110.5 235v5q0 130 -93.5 219.5t-246.5 89.5zM434 174h135v-174h-135v174z" />
    <glyph glyph-name="at" unicode="@" horiz-adv-x="2007" 
d="M1022 -332q-197 0 -363.5 71t-289.5 192.5t-191.5 283.5t-68.5 346t69.5 347t190 285t284.5 193.5t352.5 71.5t351.5 -65.5t283.5 -177t189 -259.5t68.5 -294q0 -259 -112 -385.5t-260 -126.5q-109 0 -180.5 51t-98.5 139q-73 -92 -156 -141t-175 -49
q-172 0 -276.5 102.5t-104.5 261.5q0 216 150.5 363t336.5 147q187 0 295 -182l29 153l98 -12l-76 -432q-18 -109 -18 -148q0 -88 48 -134t118 -46q138 0 225.5 107.5t87.5 316.5q0 141 -62.5 275.5t-173 239t-261 168t-327.5 63.5t-329 -65.5t-262.5 -179.5t-173 -264.5
t-62.5 -322.5t62.5 -322.5t174 -263t267.5 -177t325 -64.5t288.5 34.5t238.5 104.5l31 -51q-255 -154 -543 -154zM641 522q0 -131 75.5 -203.5t207.5 -72.5t245 122t113 257t-76.5 218t-206.5 83t-244 -118t-114 -286z" />
    <glyph glyph-name="A" unicode="A" horiz-adv-x="1617" 
d="M758 1444h102l668 -1444h-117l-182 401h-846l-182 -401h-111zM1184 498l-377 829l-379 -829h756z" />
    <glyph glyph-name="B" unicode="B" horiz-adv-x="1478" 
d="M213 1434h592q244 0 373 -127q92 -92 92 -226v-4q0 -195 -100.5 -258t-143.5 -82q223 -57 273.5 -162.5t50.5 -179.5v-4q0 -180 -141.5 -285.5t-372.5 -105.5h-623v1434zM793 772q163 0 265.5 77.5t102.5 217.5v4q0 119 -92 191.5t-266 72.5h-484v-563h474zM840 98
q184 0 292.5 79t108.5 214v4q0 133 -111.5 206t-324.5 73h-486v-576h521z" />
    <glyph glyph-name="C" unicode="C" horiz-adv-x="1511" 
d="M832 -25q-124 0 -255 57.5t-226 157t-148 234.5t-53 289v4q0 152 54 287t149.5 236t226 159.5t256.5 58.5q210 0 338.5 -59t248.5 -170l-75 -78q-108 103 -222.5 157t-252.5 54q-268 0 -440.5 -185.5t-172.5 -455.5v-4q0 -270 174.5 -457.5t431.5 -187.5q156 0 270.5 57
t223.5 166l72 -70q-191 -184 -333.5 -217t-266.5 -33z" />
    <glyph glyph-name="D" unicode="D" horiz-adv-x="1601" 
d="M213 1434h477q334 0 548 -203.5t214 -509.5v-4q0 -308 -156.5 -457t-297 -204.5t-308.5 -55.5h-477v1434zM690 98q292 0 471.5 176t179.5 439v4q0 260 -179 439t-472 179h-371v-1237h371z" />
    <glyph glyph-name="E" unicode="E" horiz-adv-x="1372" 
d="M213 1434h1020v-99h-914v-563h822v-98h-822v-576h924v-98h-1030v1434z" />
    <glyph glyph-name="F" unicode="F" horiz-adv-x="1343" 
d="M213 1434h1010v-99h-904v-587h811v-99h-811v-649h-106v1434z" />
    <glyph glyph-name="G" unicode="G" horiz-adv-x="1605" 
d="M1313 1190q-195 172 -445 172q-272 0 -440 -187.5t-168 -453.5v-4q0 -287 167.5 -467t436.5 -180t467 163v412h-479v98h582v-553q-98 -86 -243 -150.5t-318 -64.5q-334 0 -528.5 212.5t-194.5 525.5v4q0 145 50 279t143 236.5t224 164t291 61.5q303 0 524 -188z" />
    <glyph glyph-name="H" unicode="H" horiz-adv-x="1556" 
d="M213 1434h106v-664h918v664h106v-1434h-106v672h-918v-672h-106v1434z" />
    <glyph glyph-name="I" unicode="I" horiz-adv-x="561" 
d="M227 1434h107v-1434h-107v1434z" />
    <glyph glyph-name="J" unicode="J" horiz-adv-x="1124" 
d="M510 -20q-288 0 -434 268l88 55q71 -118 150 -172.5t209 -54.5t217 99.5t87 283.5v975h107v-967q0 -240 -131 -373q-114 -114 -293 -114z" />
    <glyph glyph-name="K" unicode="K" horiz-adv-x="1464" 
d="M213 1434h106v-942l914 942h145l-626 -633l653 -801h-139l-590 725l-357 -360v-365h-106v1434z" />
    <glyph glyph-name="L" unicode="L" horiz-adv-x="1267" 
d="M213 1434h106v-1336h842v-98h-948v1434z" />
    <glyph glyph-name="M" unicode="M" horiz-adv-x="1777" 
d="M213 1434h100l576 -848l575 848h101v-1434h-107v1245l-567 -825h-8l-568 825v-1245h-102v1434z" />
    <glyph glyph-name="N" unicode="N" horiz-adv-x="1617" 
d="M213 1434h100l990 -1248v1248h102v-1434h-80l-1010 1274v-1274h-102v1434z" />
    <glyph glyph-name="O" unicode="O" horiz-adv-x="1740" 
d="M867 -25q-163 0 -295 60.5t-277 217t-145 460.5v4q0 147 52 281.5t146 236.5t228 162.5t296 60.5t295 -60.5t227.5 -161.5t145.5 -234.5t51 -280.5q2 -2 0 -4q0 -147 -52 -281.5t-146.5 -237t-228.5 -163t-297 -60.5zM937.5 72q198.5 0 371 185.5t172.5 455.5v4
q0 269 -127 406t-240 188t-311 51t-370.5 -186t-172.5 -455v-4q0 -133 46 -251t127 -205t193.5 -138t311 -51z" />
    <glyph glyph-name="P" unicode="P" horiz-adv-x="1368" 
d="M213 1434h520q238 0 385.5 -117t147.5 -322v-4q0 -217 -160 -336.5t-399 -119.5h-388v-535h-106v1434zM713 633q202 0 324 96t122 256v4q0 168 -119 257t-315 89h-406v-702h394z" />
    <glyph glyph-name="Q" unicode="Q" horiz-adv-x="1740" 
d="M150 713v4q0 147 52 281.5t146 236.5t228 162.5t296 60.5t295 -60.5t227.5 -161.5t145.5 -234.5t51 -280.5q2 -2 0 -4q0 -298 -188 -506l205 -172l-76 -82l-201 182q-193 -164 -463 -164q-164 0 -296 60.5t-277 217t-145 460.5zM1481 713v4q0 269 -127 406t-240 188
t-311 51t-370.5 -186t-172.5 -455v-4q0 -133 46 -251t127 -205t193.5 -138t235.5 -51q233 0 391 135l-278 237l76 84l274 -249q156 181 156 434z" />
    <glyph glyph-name="R" unicode="R" horiz-adv-x="1480" 
d="M213 1434h602q262 0 404 -142q108 -108 108 -266v-4q0 -174 -114.5 -278t-305.5 -132l473 -612h-135l-457 594h-469v-594h-106v1434zM803 690q185 0 301.5 89t116.5 239v4q0 145 -107.5 229t-304.5 84h-490v-645h484z" />
    <glyph glyph-name="S" unicode="S" horiz-adv-x="1310" 
d="M635 1358q-156 0 -253 -78t-97 -193v-4q0 -121 85.5 -191t333.5 -121q248 -52 359 -145.5t111 -250.5v-4q0 -173 -133.5 -282t-323.5 -109q-191 0 -329 57t-267 172l69 80q175 -163 305 -188t251 -25t221 81t100 203v5q0 119 -86 188t-333 120t-358.5 142.5t-111.5 257.5
v4q0 158 130.5 267.5t330.5 109.5q156 0 269.5 -43t221.5 -131l-67 -84q-188 162 -428 162z" />
    <glyph glyph-name="T" unicode="T" horiz-adv-x="1327" 
d="M610 1335h-499v99h1106v-99h-500v-1335h-107v1335z" />
    <glyph glyph-name="U" unicode="U" horiz-adv-x="1556" 
d="M190 596v838h107v-828q0 -256 128 -394t357 -138q342 0 410 196.5t68 325.5v838h106v-826q0 -301 -161 -466t-426 -165t-427 162t-162 457z" />
    <glyph glyph-name="V" unicode="V" horiz-adv-x="1536" 
d="M90 1434h119l561 -1319l563 1319h113l-631 -1444h-94z" />
    <glyph glyph-name="W" unicode="W" horiz-adv-x="2256" 
d="M102 1434h119l451 -1276l420 1280h82l419 -1280l451 1276h110l-520 -1444h-86l-420 1245l-419 -1245h-86z" />
    <glyph glyph-name="X" unicode="X" horiz-adv-x="1478" 
d="M676 731l-551 703h127l489 -631l488 631h125l-549 -701l569 -733h-127l-510 662l-508 -662h-125z" />
    <glyph glyph-name="Y" unicode="Y" horiz-adv-x="1466" 
d="M786 0h-106v567l-614 867h133l536 -770l539 770h127l-615 -865v-569z" />
    <glyph glyph-name="Z" unicode="Z" horiz-adv-x="1409" 
d="M174 1337v97h1098v-60l-981 -1278h981v-96h-1133v59l981 1278h-946z" />
    <glyph glyph-name="bracketleft" unicode="[" horiz-adv-x="880" 
d="M201 1434h559v-78h-465v-1544h465v-78h-559v1700z" />
    <glyph glyph-name="backslash" unicode="\" 
d="M-6 1634h100l967 -1896h-100z" />
    <glyph glyph-name="bracketright" unicode="]" horiz-adv-x="880" 
d="M121 -188h465v1544h-465v78h559v-1700h-559v78z" />
    <glyph glyph-name="asciicircum" unicode="^" 
d="M467 1440h90l324 -430h-109l-262 342l-262 -342h-105z" />
    <glyph glyph-name="underscore" unicode="_" horiz-adv-x="1228" 
d="M-4 -238h1237v-90h-1237v90z" />
    <glyph glyph-name="grave" unicode="`" 
d="M322 1430l124 61l181 -272h-86z" />
    <glyph glyph-name="a" unicode="a" horiz-adv-x="1175" 
d="M104 303v4q0 160 124.5 250t320.5 90q195 0 358 -45v45q0 160 -91 240t-255 80t-325 -84l-37 88q189 90 387 90q198 -1 308 -111t112 -299v-651h-99v174q-145 -199 -352 -199t-329 87t-122 241zM552 557q-163 0 -252 -66.5t-89 -177.5v-4q0 -109 88 -174t233 -65
q144 0 260.5 90t116.5 231v119q-194 47 -357 47z" />
    <glyph glyph-name="b" unicode="b" horiz-adv-x="1351" 
d="M721 1069q199 0 353.5 -149t154.5 -394v-4q0 -242 -154.5 -394.5t-353.5 -152.5q-262 0 -430 250v-225h-101v1495h101v-684q167 258 430 258zM1120 518v4q0 204 -120 327.5t-289.5 123.5t-297.5 -128t-128 -321v-4q0 -196 128 -322t300 -126q174 0 290.5 120.5
t116.5 325.5z" />
    <glyph glyph-name="c" unicode="c" horiz-adv-x="1169" 
d="M1077 182q-184 -207 -411 -207q-237 0 -392 160.5t-155 382.5v4q0 220 154 383.5t364 163.5t302.5 -77t129.5 -115l-72 -74q-68 70 -149.5 121t-185.5 51q-191 0 -313 -131t-122 -318v-4q0 -189 125.5 -320.5t312.5 -131.5q188 0 343 174z" />
    <glyph glyph-name="d" unicode="d" horiz-adv-x="1351" 
d="M631 1069q262 0 430 -250v676h100v-1495h-100v233q-83 -121 -185 -189.5t-245 -68.5q-201 0 -354.5 149.5t-153.5 393.5v4q0 243 154 395t354 152zM1067 520v4q0 196 -128.5 322.5t-300.5 126.5t-289.5 -121t-117.5 -326v-4q0 -202 120 -326t291 -124t298 128.5
t127 319.5z" />
    <glyph glyph-name="e" unicode="e" horiz-adv-x="1196" 
d="M119 520v4q0 228 143.5 386.5t355.5 158.5t344 -155.5t132 -391.5v-14q0 -14 -2 -27h-867q11 -184 130 -297.5t280 -113.5q123 0 208 47t150 116l70 -61q-183 -197 -414 -197t-380.5 153t-149.5 392zM345.5 859.5q-108.5 -117.5 -120.5 -288.5h760q-13 172 -109 289
t-259 117t-271.5 -117.5z" />
    <glyph glyph-name="f" unicode="f" horiz-adv-x="741" 
d="M563 1409q-211 0 -211 -264v-101h365v-92h-365v-952h-100v952h-152v92h152v103q0 180 87 267t224 87q86 0 156 -24v-95q-87 27 -156 27z" />
    <glyph glyph-name="g" unicode="g" horiz-adv-x="1351" 
d="M625 1069q265 0 436 -233v208h100v-882q0 -222 -136 -358t-388 -136t-467 160l59 82q190 -147 422 -148q185 0 297.5 106.5t112.5 299.5v151q-172 -241 -436 -241q-200 0 -351 138.5t-151 352.5v4q0 218 152 357t350 139zM936.5 287q130.5 113 130.5 284v4
q0 174 -129 286t-301 112t-289 -108.5t-117 -286.5v-5q0 -173 119.5 -286t287.5 -113t298.5 113z" />
    <glyph glyph-name="h" unicode="h" horiz-adv-x="1255" 
d="M668 1069q195 0 306 -118.5t111 -311.5v-639h-100v621q0 162 -86 259t-243 97t-261 -105t-104 -268v-604h-101v1495h101v-645q126 219 377 219z" />
    <glyph glyph-name="i" unicode="i" horiz-adv-x="509" 
d="M193 1454h124v-137h-124v137zM205 1044h100v-1044h-100v1044z" />
    <glyph glyph-name="j" unicode="j" horiz-adv-x="509" 
d="M193 1454h124v-137h-124v137zM80 -244q55 0 90 36t35 110v1142h100v-1136q0 -123 -60.5 -182.5t-162.5 -59.5q-43 0 -84 8v88q27 -6 82 -6z" />
    <glyph glyph-name="k" unicode="k" horiz-adv-x="1146" 
d="M190 1495h101v-1120l647 669h133l-457 -462l471 -582h-127l-413 510l-254 -256v-254h-101v1495z" />
    <glyph glyph-name="l" unicode="l" horiz-adv-x="509" 
d="M205 1495h100v-1495h-100v1495z" />
    <glyph glyph-name="m" unicode="m" horiz-adv-x="1947" 
d="M1368 1069q184 0 292.5 -118t108.5 -318v-633h-100v621q0 170 -82 263t-224 93t-237.5 -99t-95.5 -270v-608h-100v627q0 164 -82 257t-224 93t-237.5 -109t-95.5 -266v-602h-101v1044h101v-186q58 96 138.5 153.5t209.5 57.5q242 0 352 -225q131 225 377 225z" />
    <glyph glyph-name="n" unicode="n" horiz-adv-x="1255" 
d="M668 1069q195 0 306 -118.5t111 -311.5v-639h-100v621q0 162 -86 259t-243 97t-261 -105t-104 -268v-604h-101v1044h101v-194q126 219 377 219z" />
    <glyph glyph-name="o" unicode="o" horiz-adv-x="1310" 
d="M119 518v4q0 223 154.5 385t382 162t382 -158.5t154.5 -384.5v-4q0 -223 -154.5 -385t-382.5 -162t-382 159.5t-154 383.5zM1083 518v4q0 192 -124.5 322.5t-306.5 130.5t-303.5 -131t-121.5 -318v-4q0 -191 124.5 -321.5t306.5 -130.5q183 0 304 129.5t121 318.5z" />
    <glyph glyph-name="p" unicode="p" horiz-adv-x="1351" 
d="M721 -25q-262 0 -430 250v-553h-101v1372h101v-233q167 258 430 258q199 0 353.5 -149t154.5 -394v-4q0 -242 -154.5 -394.5t-353.5 -152.5zM1120 518v4q0 204 -120 327.5t-289.5 123.5t-297.5 -128t-128 -321v-4q0 -196 128 -322t300 -126q174 0 290.5 120.5
t116.5 325.5z" />
    <glyph glyph-name="q" unicode="q" horiz-adv-x="1351" 
d="M631 1069q262 0 430 -250v225h100v-1372h-100v561q-83 -121 -185 -189.5t-245 -68.5q-201 0 -354.5 149.5t-153.5 393.5v4q0 243 154 395t354 152zM1067 520v4q0 196 -128.5 322.5t-300.5 126.5t-289.5 -121t-117.5 -326v-4q0 -202 120 -326t291 -124t298 128.5
t127 319.5z" />
    <glyph glyph-name="r" unicode="r" horiz-adv-x="819" 
d="M190 1044h101v-296q64 145 186 231t277 82v-111h-11q-192 0 -322 -139.5t-130 -382.5v-428h-101v1044z" />
    <glyph glyph-name="s" unicode="s" horiz-adv-x="1017" 
d="M254 788v-4q0 -108 117 -147t177 -56q160 -46 250.5 -107.5t90.5 -184.5v-4q0 -139 -104 -222t-238 -83q-261 0 -447 151l60 80q179 -137 375 -137q106 0 178.5 53t72.5 145v4q0 119 -110.5 156t-169.5 54q-175 50 -264.5 105.5t-89.5 180.5v4q0 124 95.5 206.5
t248.5 82.5q94 0 193 -30.5t177 -84.5l-53 -84q-161 105 -321 105q-109 0 -173.5 -52.5t-64.5 -130.5z" />
    <glyph glyph-name="t" unicode="t" horiz-adv-x="819" 
d="M552 -18q-146 0 -226 72t-80 214v684h-152v92h152v334h100v-334h367v-92h-367v-673q0 -113 58.5 -158t141.5 -45t163 37v-95q-83 -36 -157 -36z" />
    <glyph glyph-name="u" unicode="u" horiz-adv-x="1255" 
d="M610 -25q-216 0 -328 118.5t-112 312.5v638h100v-620q0 -162 86 -259t243 -97t261.5 104.5t104.5 267.5v604h100v-1044h-100v195q-53 -92 -144 -156t-211 -64z" />
    <glyph glyph-name="v" unicode="v" horiz-adv-x="1191" 
d="M84 1044h117l395 -931l399 931h113l-469 -1052h-86z" />
    <glyph glyph-name="w" unicode="w" horiz-adv-x="1763" 
d="M100 1044h113l315 -917l316 922h80l315 -922l315 917h109l-383 -1052h-86l-311 895l-314 -895h-86z" />
    <glyph glyph-name="x" unicode="x" horiz-adv-x="1167" 
d="M520 532l-411 512h124l353 -442l352 442h121l-412 -509l428 -535h-125l-368 465l-369 -465h-121z" />
    <glyph glyph-name="y" unicode="y" horiz-adv-x="1204" 
d="M513 -267.5q-83 -66.5 -188 -66.5t-214 45l34 88q80 -39 150 -39t135.5 23.5t151.5 222.5l-502 1038h117l434 -933l377 933h110l-452 -1081q-70 -164 -153 -230.5z" />
    <glyph glyph-name="z" unicode="z" horiz-adv-x="1134" 
d="M147 954v90h875v-57l-754 -897h754v-90h-903v57l753 897h-725z" />
    <glyph glyph-name="braceleft" unicode="{" horiz-adv-x="983" 
d="M420 127v162q0 127 -54 193.5t-192 66.5h-53v78h53q198 0 222 100t24 160v162q0 174 86.5 270t345.5 145l14 -65q-230 -61 -277.5 -117.5t-58 -112t-10.5 -133.5v-153q0 -186 -82 -233.5t-131 -61.5q108 -34 160.5 -99t52.5 -196v-154q0 -78 10.5 -133t59 -112.5
t276.5 -116.5l-14 -66q-260 51 -346 146.5t-86 269.5z" />
    <glyph glyph-name="bar" unicode="|" horiz-adv-x="585" 
d="M248 1634h90v-1896h-90v1896z" />
    <glyph glyph-name="braceright" unicode="}" horiz-adv-x="983" 
d="M463 139v154q0 185 82 232.5t131 62.5q-110 35 -161.5 100.5t-51.5 194.5v153q0 78 -10.5 133.5t-58 111.5t-277.5 118l14 65q261 -52 346.5 -146.5t85.5 -268.5v-162q0 -128 54 -194t192 -66h53v-78h-53q-198 0 -222 -100.5t-24 -159.5v-162q0 -174 -86 -269.5
t-346 -146.5l-14 66q230 61 277.5 117.5t58 111.5t10.5 133z" />
    <glyph glyph-name="asciitilde" unicode="~" horiz-adv-x="942" 
d="M774 705q-50 -191 -156 -191q-46 0 -80 13.5t-70 28.5t-68.5 28.5t-64.5 13.5t-53.5 -21.5t-43.5 -80.5l-70 18q50 191 156 191q45 0 79.5 -13.5t100.5 -42t101 -28.5q34 0 55.5 21.5t44.5 80.5z" />
    <glyph glyph-name="nonbreakingspace" unicode="&#xa0;" horiz-adv-x="614" 
 />
    <glyph glyph-name="exclamdown" unicode="&#xa1;" horiz-adv-x="516" 
d="M190 1434h136v-174h-136v174zM317 0h-118v143l30 916h58l30 -916v-143z" />
    <glyph glyph-name="cent" unicode="&#xa2;" horiz-adv-x="1189" 
d="M659 180q-41 0 -79 6l-39 -198h-103l45 223q-158 53 -257 195t-99 317v4q0 220 154 383.5t378 163.5h31l33 172h102l-37 -186q155 -38 289 -179l-71 -73q-51 53 -108.5 96t-133.5 61l-170 -884q33 -6 72 -7q194 0 350 175l69 -62q-80 -90 -181 -148.5t-245 -58.5z
M657 1180q-178 0 -299.5 -130.5t-121.5 -318.5v-4q0 -145 75.5 -259t196.5 -163l168 875h-19z" />
    <glyph glyph-name="sterling" unicode="&#xa3;" horiz-adv-x="1318" 
d="M319 625h-176v98h176v242q1 238 127 364q126 125 327 125t291.5 -86t125.5 -131l-82 -63q-71 89 -152.5 136.5t-210.5 47.5t-225 -95t-96 -296v-244h610v-98h-610v-529h766v-96h-1047v51l176 41v533z" />
    <glyph glyph-name="currency" unicode="&#xa4;" horiz-adv-x="1474" 
d="M121 502v98h170q-6 55 -6 113v4q0 62 10 135h-174v98h192q55 226 205.5 367t343.5 141q243 0 347 -112.5t145 -174.5l-82 -55q-88 127 -182 187.5t-239 60.5t-264.5 -115.5t-168.5 -298.5h581v-98h-600q-10 -72 -10 -131v-4q0 -59 6 -117h604v-98h-585q79 -304 231 -368
t238 -64q133 0 227 72.5t170 189.5l78 -51q-199 -306 -481 -306q-209 0 -362.5 142.5t-209.5 384.5h-184z" />
    <glyph glyph-name="yen" unicode="&#xa5;" horiz-adv-x="1404" 
d="M651 256h-436v92h436v201h-436v92h399l-548 793h129l510 -764l512 764h122l-551 -793h402v-92h-436v-201h436v-92h-436v-256h-103v256z" />
    <glyph glyph-name="section" unicode="&#xa7;" horiz-adv-x="1294" 
d="M260 1194v4q0 117 99 186.5t249 69.5q284 0 477 -194l-77 -74q-72 72 -173.5 120t-224.5 48t-180 -46t-57 -112v-4q0 -131 375 -217q233 -59 323 -121.5t90 -163.5v-4q0 -92 -82 -153.5t-221 -77.5q80 -35 128 -89.5t48 -125.5v-4q0 -117 -98 -186.5t-248 -69.5
q-284 0 -479 194l78 74q72 -72 173 -120t224 -48t180.5 46t57.5 112v4q0 127 -333 206q-267 64 -361.5 128.5t-94.5 166.5v5q0 92 82 153.5t221 77.5q-176 77 -176 215zM980.5 566q74.5 48 74.5 112v4q0 91 -189 162t-334 71t-218.5 -47t-73.5 -112v-4q0 -61 69.5 -108
t226.5 -87q158 -39 264 -39t180.5 48z" />
    <glyph glyph-name="dieresis" unicode="&#xa8;" 
d="M608 1382h142v-163h-142v163zM274 1382h142v-163h-142v163z" />
    <glyph glyph-name="copyright" unicode="&#xa9;" horiz-adv-x="1699" 
d="M848 -25q-156 0 -291 58.5t-234.5 159t-156.5 234.5t-57 286v4q0 152 57 286t157.5 235t236.5 160.5t292 59.5t291 -58.5t234.5 -158.5t156.5 -234.5t57 -285.5v-4q0 -152 -57 -286t-157.5 -235.5t-236.5 -161t-292 -59.5zM1530 717v4q0 141 -51.5 265t-142.5 216
t-215 145.5t-269 53.5t-270 -54.5t-216.5 -147.5t-143.5 -217t-52 -265v-4q0 -286 195 -483t411.5 -197t341.5 54t268.5 201.5t143.5 428.5zM1153 471q-131 -131 -285 -131q-167 0 -275 113.5t-108 271.5v4q0 158 109 272.5t266 114.5q100 0 166 -36t123 -89l-62 -63
q-111 106 -231 106t-200.5 -89.5t-80.5 -213.5v-4q0 -124 83 -214.5t202 -90.5q76 0 129 27.5t107 78.5z" />
    <glyph glyph-name="ordfeminine" unicode="&#xaa;" horiz-adv-x="798" 
d="M557 938q-75 -96 -210 -96t-174.5 68.5t-39.5 115.5v4q0 92 70.5 141.5t171.5 49.5t182 -23v10q0 78 -46 118t-123 40t-181 -49l-27 69q114 54 222 54t169 -62t62 -168v-356h-76v84zM127 682h516v-82h-516v82zM391 1151q-86 0 -131 -33t-45 -84v-4q0 -55 43 -85t92 -30
q91 0 149 45t58 113v55q-80 23 -166 23z" />
    <glyph glyph-name="guillemotleft" unicode="&#xab;" horiz-adv-x="1054" 
d="M522 514v16l328 428l76 -49l-281 -385l281 -389l-76 -49zM104 514v16l328 428l76 -49l-281 -385l281 -389l-76 -49z" />
    <glyph glyph-name="registered" unicode="&#xae;" horiz-adv-x="1699" 
d="M848 -25q-156 0 -291 58.5t-234.5 159t-156.5 234.5t-57 286v4q0 152 57 286t157.5 235t236.5 160.5t292 59.5t291 -58.5t234.5 -158.5t156.5 -234.5t57 -285.5v-4q0 -152 -57 -286t-157.5 -235.5t-236.5 -161t-292 -59.5zM1530 717v4q0 141 -51.5 265t-142.5 216
t-215 145.5t-269 53.5t-270 -54.5t-216.5 -147.5t-143.5 -217t-52 -265v-4q0 -286 195 -483t411.5 -197t341.5 54t268.5 201.5t143.5 428.5zM565 1112h336q197 0 237 -86t40 -129v-4q0 -92 -56.5 -145.5t-148.5 -69.5l250 -316h-115l-238 302h-217v-302h-88v750zM887 745
q86 0 142 36t56 108v4q0 61 -50 98t-138 37h-244v-283h234z" />
    <glyph glyph-name="macron" unicode="&#xaf;" 
d="M205 1337h614v-108h-614v108z" />
    <glyph glyph-name="macron" unicode="&#x2c9;" 
d="M205 1337h614v-108h-614v108z" />
    <glyph glyph-name="degree" unicode="&#xb0;" horiz-adv-x="921" 
d="M246 934q-94 90 -94 209v4q0 119 94 209t215 90t215 -90t94 -209v-4q0 -119 -94 -209t-215 -90t-215 90zM668 1143v4q0 85 -60 147t-147 62t-147 -62t-60 -147v-4q0 -85 60 -147t147 -62t147 62t60 147z" />
    <glyph glyph-name="plusminus" unicode="&#xb1;" horiz-adv-x="1228" 
d="M1061 1073q0 -247 -273 -340q138 -38 225 -127t87 -225v-4q0 -169 -137 -285.5t-327 -116.5q-189 0 -323.5 75t-220.5 190l86 63q174 -231 447 -231q158 0 261 84t103 219v4q0 139 -110.5 218t-313.5 79h-143v94h145q165 0 274 80.5t109 218.5v4q0 126 -94.5 207.5
t-237.5 81.5t-238 -56.5t-173 -162.5l-82 49q180 266 485 266q195 0 323 -109t128 -272v-4z" />
    <glyph glyph-name="acute" unicode="&#xb4;" 
d="M578 1491l124 -61l-219 -211h-86z" />
    <glyph glyph-name="mu" unicode="&#xb5;" horiz-adv-x="1740" 
d="M150 713v4q0 147 52 281.5t146 236.5t228 162.5t296 60.5t295 -60.5t227.5 -161.5t145.5 -234.5t51 -280.5q2 -2 0 -4q0 -174 -72.5 -330t-203.5 -260l348 -326v-8h-154l-292 268q-159 -86 -336 -86q-329 0 -530 217t-201 521zM937.5 72q198.5 0 371 185.5t172.5 455.5v4
q0 269 -127 406t-240 188t-311 51t-370.5 -186t-172.5 -455v-4q0 -133 46 -251t127 -205t193.5 -138t311 -51z" />
    <glyph glyph-name="mu" unicode="&#x3bc;" horiz-adv-x="1740" 
d="M150 713v4q0 147 52 281.5t146 236.5t228 162.5t296 60.5t295 -60.5t227.5 -161.5t145.5 -234.5t51 -280.5q2 -2 0 -4q0 -174 -72.5 -330t-203.5 -260l348 -326v-8h-154l-292 268q-159 -86 -336 -86q-329 0 -530 217t-201 521zM937.5 72q198.5 0 371 185.5t172.5 455.5v4
q0 269 -127 406t-240 188t-311 51t-370.5 -186t-172.5 -455v-4q0 -133 46 -251t127 -205t193.5 -138t311 -51z" />
    <glyph glyph-name="paragraph" unicode="&#xb6;" horiz-adv-x="983" 
d="M682 567h-12q-244 0 -402.5 115.5t-158.5 316.5v5q0 200 148 315t382 115h152v-1434h-109v567z" />
    <glyph glyph-name="periodcentered" unicode="&#xb7;" horiz-adv-x="471" 
d="M168 696h135v-174h-135v174z" />
    <glyph glyph-name="periodcentered" unicode="&#x2219;" horiz-adv-x="471" 
d="M168 696h135v-174h-135v174z" />
    <glyph glyph-name="cedilla" unicode="&#xb8;" 
d="M332 -250l184 270h88l-160 -323z" />
    <glyph glyph-name="ordmasculine" unicode="&#xba;" horiz-adv-x="798" 
d="M187 929q-83 87 -83 210v4q0 121 84.5 211t212.5 90t210.5 -87t82.5 -210v-4q0 -123 -85 -212t-212 -89t-210 87zM104 682h590v-82h-590v82zM606 1139v4q0 92 -60.5 156.5t-150.5 64.5t-146 -63.5t-56 -153.5v-4q0 -93 60 -157t150 -64t146.5 63.5t56.5 153.5z" />
    <glyph glyph-name="guillemotright" unicode="&#xbb;" horiz-adv-x="1054" 
d="M547 135l280 385l-280 389l76 49l327 -428v-16l-327 -428zM129 135l281 385l-281 389l76 49l327 -428v-16l-327 -428z" />
    <glyph glyph-name="questiondown" unicode="&#xbf;" horiz-adv-x="1093" 
d="M524 1434h135v-174h-135v174zM106 381v4q0 180 122 288.5t313 129.5l18 256h66l26 -332l-10 -10q-205 -4 -315.5 -92t-110.5 -236v-4q0 -131 93 -220t247 -89q224 0 395 211l74 -62q-190 -243 -473 -243q-200 0 -322.5 116.5t-122.5 282.5z" />
    <glyph glyph-name="Agrave" unicode="&#xc0;" horiz-adv-x="1617" 
d="M758 1444h102l668 -1444h-117l-182 401h-846l-182 -401h-111zM1184 498l-377 829l-379 -829h756zM539 1778l125 61l180 -272h-86z" />
    <glyph glyph-name="Aacute" unicode="&#xc1;" horiz-adv-x="1617" 
d="M758 1444h102l668 -1444h-117l-182 401h-846l-182 -401h-111zM1184 498l-377 829l-379 -829h756zM954 1839l125 -61l-219 -211h-86z" />
    <glyph glyph-name="Acircumflex" unicode="&#xc2;" horiz-adv-x="1617" 
d="M758 1444h102l668 -1444h-117l-182 401h-846l-182 -401h-111zM1184 498l-377 829l-379 -829h756zM768 1806h82l205 -250h-97l-151 140l-152 -140h-92z" />
    <glyph glyph-name="Atilde" unicode="&#xc3;" horiz-adv-x="1617" 
d="M758 1444h102l668 -1444h-117l-182 401h-846l-182 -401h-111zM1184 498l-377 829l-379 -829h756zM1112 1757q-50 -190 -156 -190q-45 0 -79.5 13t-102 42t-100.5 29t-54.5 -21.5t-44.5 -81.5l-69 19q50 190 156 190q46 0 80 -13t101.5 -42t100.5 -29t54.5 21.5t43.5 81.5
z" />
    <glyph glyph-name="Adieresis" unicode="&#xc4;" horiz-adv-x="1617" 
d="M758 1444h102l668 -1444h-117l-182 401h-846l-182 -401h-111zM1184 498l-377 829l-379 -829h756zM905 1731h142v-164h-142v164zM571 1731h142v-164h-142v164z" />
    <glyph glyph-name="Aring" unicode="&#xc5;" horiz-adv-x="1617" 
d="M608 1563v4q0 77 60.5 133.5t140.5 56.5t140.5 -56.5t60.5 -133.5v-4q0 -59 -35 -105.5t-88 -68.5l641 -1389h-117l-182 401h-846l-182 -401h-111l641 1386q-53 23 -88 70t-35 107zM809 1438q51 0 89 36.5t38 88.5v4q0 51 -37 88t-90 37t-90 -37t-37 -88v-4q0 -51 38 -88
t89 -37zM1184 498l-377 829l-379 -829h756z" />
    <glyph glyph-name="AE" unicode="&#xc6;" horiz-adv-x="2140" 
d="M2001 1434v-99h-883v-563h791v-98h-791v-576h893v-98h-999v401h-615l-241 -401h-115l868 1434h1092zM1012 498v839h-54l-503 -839h557z" />
    <glyph glyph-name="Ccedilla" unicode="&#xc7;" horiz-adv-x="1511" 
d="M150 713v4q0 152 54 287t149.5 236t226 159.5t256.5 58.5q210 0 338.5 -59t248.5 -170l-75 -78q-108 103 -222.5 157t-252.5 54q-268 0 -440.5 -185.5t-172.5 -455.5v-4q0 -270 174.5 -457.5t431.5 -187.5q156 0 270.5 57t223.5 166l72 -70q-125 -121 -251 -183.5
t-292 -66.5l-137 -278l-113 53l156 227q-277 24 -461 233.5t-184 502.5z" />
    <glyph glyph-name="Egrave" unicode="&#xc8;" horiz-adv-x="1372" 
d="M213 1434h1020v-99h-914v-563h822v-98h-822v-576h924v-98h-1030v1434zM496 1778l125 61l180 -272h-86z" />
    <glyph glyph-name="Eacute" unicode="&#xc9;" horiz-adv-x="1372" 
d="M213 1434h1020v-99h-914v-563h822v-98h-822v-576h924v-98h-1030v1434zM813 1839l125 -61l-219 -211h-86z" />
    <glyph glyph-name="Ecircumflex" unicode="&#xca;" horiz-adv-x="1372" 
d="M213 1434h1020v-99h-914v-563h822v-98h-822v-576h924v-98h-1030v1434zM674 1817h82l205 -250h-97l-151 139l-152 -139h-92z" />
    <glyph glyph-name="Edieresis" unicode="&#xcb;" horiz-adv-x="1372" 
d="M213 1434h1020v-99h-914v-563h822v-98h-822v-576h924v-98h-1030v1434zM811 1731h141v-164h-141v164zM477 1731h141v-164h-141v164z" />
    <glyph glyph-name="Igrave" unicode="&#xcc;" horiz-adv-x="561" 
d="M227 1434h107v-1434h-107v1434zM14 1778l125 61l180 -272h-86z" />
    <glyph glyph-name="Iacute" unicode="&#xcd;" horiz-adv-x="561" 
d="M227 1434h107v-1434h-107v1434zM422 1839l125 -61l-219 -211h-86z" />
    <glyph glyph-name="Icircumflex" unicode="&#xce;" horiz-adv-x="561" 
d="M227 1434h107v-1434h-107v1434zM242 1817h82l204 -250h-96l-151 139l-152 -139h-92z" />
    <glyph glyph-name="Idieresis" unicode="&#xcf;" horiz-adv-x="561" 
d="M227 1434h107v-1434h-107v1434zM379 1731h141v-164h-141v164zM45 1731h141v-164h-141v164z" />
    <glyph glyph-name="Eth" unicode="&#xd0;" horiz-adv-x="1662" 
d="M274 672h-153v98h153v664h478q333 0 547 -202.5t214 -510.5v-4q0 -310 -215 -513.5t-546 -203.5h-478v672zM752 98q292 0 471.5 176t179.5 439v4q0 260 -179 439t-472 179h-371v-565h475v-98h-475v-574h371z" />
    <glyph glyph-name="Ntilde" unicode="&#xd1;" horiz-adv-x="1617" 
d="M213 1434h100l990 -1248v1248h102v-1434h-80l-1010 1274v-1274h-102v1434zM1112 1757q-50 -190 -156 -190q-45 0 -79.5 13t-102 42t-100.5 29t-54.5 -21.5t-44.5 -81.5l-69 19q50 190 156 190q46 0 80 -13t101.5 -42t100.5 -29t54.5 21.5t43.5 81.5z" />
    <glyph glyph-name="Ograve" unicode="&#xd2;" horiz-adv-x="1740" 
d="M867 -25q-163 0 -295 60.5t-277 217t-145 460.5v4q0 147 52 281.5t146 236.5t228 162.5t296 60.5t295 -60.5t227.5 -161.5t145.5 -234.5t51 -280.5q2 -2 0 -4q0 -147 -52 -281.5t-146.5 -237t-228.5 -163t-297 -60.5zM937.5 72q198.5 0 371 185.5t172.5 455.5v4
q0 269 -127 406t-240 188t-311 51t-370.5 -186t-172.5 -455v-4q0 -133 46 -251t127 -205t193.5 -138t311 -51zM598 1778l125 61l180 -272h-86z" />
    <glyph glyph-name="Oacute" unicode="&#xd3;" horiz-adv-x="1740" 
d="M867 -25q-163 0 -295 60.5t-277 217t-145 460.5v4q0 147 52 281.5t146 236.5t228 162.5t296 60.5t295 -60.5t227.5 -161.5t145.5 -234.5t51 -280.5q2 -2 0 -4q0 -147 -52 -281.5t-146.5 -237t-228.5 -163t-297 -60.5zM937.5 72q198.5 0 371 185.5t172.5 455.5v4
q0 269 -127 406t-240 188t-311 51t-370.5 -186t-172.5 -455v-4q0 -133 46 -251t127 -205t193.5 -138t311 -51zM1018 1839l125 -61l-219 -211h-86z" />
    <glyph glyph-name="Ocircumflex" unicode="&#xd4;" horiz-adv-x="1740" 
d="M867 -25q-163 0 -295 60.5t-277 217t-145 460.5v4q0 147 52 281.5t146 236.5t228 162.5t296 60.5t295 -60.5t227.5 -161.5t145.5 -234.5t51 -280.5q2 -2 0 -4q0 -147 -52 -281.5t-146.5 -237t-228.5 -163t-297 -60.5zM937.5 72q198.5 0 371 185.5t172.5 455.5v4
q0 269 -127 406t-240 188t-311 51t-370.5 -186t-172.5 -455v-4q0 -133 46 -251t127 -205t193.5 -138t311 -51zM829 1817h82l205 -250h-96l-152 139l-151 -139h-92z" />
    <glyph glyph-name="Otilde" unicode="&#xd5;" horiz-adv-x="1740" 
d="M867 -25q-163 0 -295 60.5t-277 217t-145 460.5v4q0 147 52 281.5t146 236.5t228 162.5t296 60.5t295 -60.5t227.5 -161.5t145.5 -234.5t51 -280.5q2 -2 0 -4q0 -147 -52 -281.5t-146.5 -237t-228.5 -163t-297 -60.5zM937.5 72q198.5 0 371 185.5t172.5 455.5v4
q0 269 -127 406t-240 188t-311 51t-370.5 -186t-172.5 -455v-4q0 -133 46 -251t127 -205t193.5 -138t311 -51zM1174 1757q-50 -190 -156 -190q-46 0 -80.5 13t-102 42t-100.5 29t-54.5 -21.5t-43.5 -81.5l-70 19q50 190 156 190q45 0 80 -13t101.5 -42t99.5 -29
q34 0 55.5 21.5t44.5 81.5z" />
    <glyph glyph-name="Odieresis" unicode="&#xd6;" horiz-adv-x="1740" 
d="M867 -25q-163 0 -295 60.5t-277 217t-145 460.5v4q0 147 52 281.5t146 236.5t228 162.5t296 60.5t295 -60.5t227.5 -161.5t145.5 -234.5t51 -280.5q2 -2 0 -4q0 -147 -52 -281.5t-146.5 -237t-228.5 -163t-297 -60.5zM937.5 72q198.5 0 371 185.5t172.5 455.5v4
q0 269 -127 406t-240 188t-311 51t-370.5 -186t-172.5 -455v-4q0 -133 46 -251t127 -205t193.5 -138t311 -51zM967 1731h141v-164h-141v164zM633 1731h141v-164h-141v164z" />
    <glyph glyph-name="Oslash" unicode="&#xd8;" horiz-adv-x="1740" 
d="M868 -25q-264 0 -467 168l-145 -153h-123l205 217q-188 208 -188 506v4q0 147 52 281.5t146 236.5t227.5 162.5t296.5 60.5q272 0 467 -170l146 156h123l-205 -217q188 -208 188 -506q2 -2 0 -4q0 -147 -52 -281.5t-146.5 -237t-228.5 -163t-296 -60.5zM1270 1208
q-167 154 -416 154t-421.5 -186t-172.5 -455v-4q0 -248 152 -430zM1481 713v4q0 248 -152 430l-858 -922q166 -153 415 -153q250 0 422.5 185.5t172.5 455.5z" />
    <glyph glyph-name="Ugrave" unicode="&#xd9;" horiz-adv-x="1556" 
d="M190 596v838h107v-828q0 -256 128 -394t357 -138q342 0 410 196.5t68 325.5v838h106v-826q0 -301 -161 -466t-426 -165t-427 162t-162 457zM524 1767l125 62l180 -273h-86z" />
    <glyph glyph-name="Uacute" unicode="&#xda;" horiz-adv-x="1556" 
d="M190 596v838h107v-828q0 -256 128 -394t357 -138q342 0 410 196.5t68 325.5v838h106v-826q0 -301 -161 -466t-426 -165t-427 162t-162 457zM907 1829l125 -62l-219 -211h-86z" />
    <glyph glyph-name="Ucircumflex" unicode="&#xdb;" horiz-adv-x="1556" 
d="M190 596v838h107v-828q0 -256 128 -394t357 -138q342 0 410 196.5t68 325.5v838h106v-826q0 -301 -161 -466t-426 -165t-427 162t-162 457zM737 1806h82l205 -250h-96l-152 140l-151 -140h-93z" />
    <glyph glyph-name="Udieresis" unicode="&#xdc;" horiz-adv-x="1556" 
d="M190 596v838h107v-828q0 -256 128 -394t357 -138q342 0 410 196.5t68 325.5v838h106v-826q0 -301 -161 -466t-426 -165t-427 162t-162 457zM874 1720h142v-164h-142v164zM541 1720h141v-164h-141v164z" />
    <glyph glyph-name="Yacute" unicode="&#xdd;" horiz-adv-x="1466" 
d="M786 0h-106v567l-614 867h133l536 -770l539 770h127l-615 -865v-569zM877 1829l124 -62l-219 -211h-86z" />
    <glyph glyph-name="Thorn" unicode="&#xde;" horiz-adv-x="1378" 
d="M213 1434h106v-260h414q239 0 386 -118t147 -321v-4q0 -218 -162.5 -338.5t-396.5 -120.5h-388v-272h-106v1434zM713 371q199 0 322.5 97t123.5 257v4q0 168 -119 257t-315 89h-406v-704h394z" />
    <glyph glyph-name="germandbls" unicode="&#xdf;" horiz-adv-x="1269" 
d="M1032 387q0 266 -440 313v84q247 75 297.5 182t50.5 177v4q0 119 -86.5 193.5t-227.5 74.5t-238 -105t-97 -286v-1024h-101v1024q0 214 122.5 349.5t315.5 135.5t307 -101.5t114 -256.5v-4q0 -138 -94.5 -241t-227.5 -148q282 -49 348 -167t66 -200v-4q0 -183 -147 -287
t-402 -104v88q205 4 322.5 79t117.5 220v4z" />
    <glyph glyph-name="agrave" unicode="&#xe0;" horiz-adv-x="1175" 
d="M104 303v4q0 160 124.5 250t320.5 90q195 0 358 -45v45q0 160 -91 240t-255 80t-325 -84l-37 88q189 90 387 90q198 -1 308 -111t112 -299v-651h-99v174q-145 -199 -352 -199t-329 87t-122 241zM552 557q-163 0 -252 -66.5t-89 -177.5v-4q0 -109 88 -174t233 -65
q144 0 260.5 90t116.5 231v119q-194 47 -357 47zM322 1430l124 61l181 -272h-86z" />
    <glyph glyph-name="aacute" unicode="&#xe1;" horiz-adv-x="1175" 
d="M104 303v4q0 160 124.5 250t320.5 90q195 0 358 -45v45q0 160 -91 240t-255 80t-325 -84l-37 88q189 90 387 90q198 -1 308 -111t112 -299v-651h-99v174q-145 -199 -352 -199t-329 87t-122 241zM552 557q-163 0 -252 -66.5t-89 -177.5v-4q0 -109 88 -174t233 -65
q144 0 260.5 90t116.5 231v119q-194 47 -357 47zM705 1491l124 -61l-219 -211h-86z" />
    <glyph glyph-name="acircumflex" unicode="&#xe2;" horiz-adv-x="1175" 
d="M104 303v4q0 160 124.5 250t320.5 90q195 0 358 -45v45q0 160 -91 240t-255 80t-325 -84l-37 88q189 90 387 90q198 -1 308 -111t112 -299v-651h-99v174q-145 -199 -352 -199t-329 87t-122 241zM552 557q-163 0 -252 -66.5t-89 -177.5v-4q0 -109 88 -174t233 -65
q144 0 260.5 90t116.5 231v119q-194 47 -357 47zM553 1468h82l205 -249h-97l-151 139l-152 -139h-92z" />
    <glyph glyph-name="atilde" unicode="&#xe3;" horiz-adv-x="1175" 
d="M104 303v4q0 160 124.5 250t320.5 90q195 0 358 -45v45q0 160 -91 240t-255 80t-325 -84l-37 88q189 90 387 90q198 -1 308 -111t112 -299v-651h-99v174q-145 -199 -352 -199t-329 87t-122 241zM552 557q-163 0 -252 -66.5t-89 -177.5v-4q0 -109 88 -174t233 -65
q144 0 260.5 90t116.5 231v119q-194 47 -357 47zM897 1409q-50 -190 -156 -190q-45 0 -79.5 13t-102 42t-100.5 29t-54.5 -21.5t-44.5 -81.5l-69 19q49 190 155 190q46 0 80.5 -13.5t70.5 -28.5t68.5 -28.5t64.5 -13.5t53.5 21.5t43.5 80.5z" />
    <glyph glyph-name="adieresis" unicode="&#xe4;" horiz-adv-x="1175" 
d="M104 303v4q0 160 124.5 250t320.5 90q195 0 358 -45v45q0 160 -91 240t-255 80t-325 -84l-37 88q189 90 387 90q198 -1 308 -111t112 -299v-651h-99v174q-145 -199 -352 -199t-329 87t-122 241zM552 557q-163 0 -252 -66.5t-89 -177.5v-4q0 -109 88 -174t233 -65
q144 0 260.5 90t116.5 231v119q-194 47 -357 47zM690 1382h141v-163h-141v163zM356 1382h142v-163h-142v163z" />
    <glyph glyph-name="aring" unicode="&#xe5;" horiz-adv-x="1175" 
d="M104 303v4q0 160 124.5 250t320.5 90q195 0 358 -45v45q0 160 -91 240t-255 80t-325 -84l-37 88q189 90 387 90q198 -1 308 -111t112 -299v-651h-99v174q-145 -199 -352 -199t-329 87t-122 241zM552 557q-163 0 -252 -66.5t-89 -177.5v-4q0 -109 88 -174t233 -65
q144 0 260.5 90t116.5 231v119q-194 47 -357 47zM453.5 1270.5q-60.5 56.5 -60.5 134.5v4q0 78 60 134t141 56t141 -56t60 -134v-4q0 -78 -60.5 -134.5t-140.5 -56.5t-140.5 56.5zM594 1280q51 0 89 37t38 88v4q0 51 -37 88t-90 37t-90 -37t-37 -88v-4q0 -51 38 -88t89 -37z
" />
    <glyph glyph-name="ae" unicode="&#xe6;" horiz-adv-x="1953" 
d="M498 -25q-158 0 -276 87.5t-118 240.5v4q0 161 123.5 250.5t306.5 89.5q182 0 345 -45v45q0 160 -86 240t-241 80t-316 -84l-37 88q88 41 170 65.5t212 24.5t232 -65.5t137 -196.5q61 123 172 196.5t236 73.5q230 0 361.5 -155t131.5 -392v-14q0 -14 -2 -27h-866
q11 -184 130 -297.5t280 -113.5q123 0 208 47t150 116l70 -61q-80 -86 -181.5 -141.5t-240.5 -55.5t-251 60.5t-181 169.5q-201 -230 -469 -230zM1374 977q-162 0 -270.5 -117.5t-120.5 -288.5h760q-20 273 -152.5 339.5t-216.5 66.5zM537 557q-154 0 -240 -66.5t-86 -177.5
v-4q0 -109 84 -174t209 -65q241 0 418 219q-41 105 -45 223q-186 45 -340 45z" />
    <glyph glyph-name="ccedilla" unicode="&#xe7;" horiz-adv-x="1169" 
d="M119 518v4q0 220 154 383.5t364 163.5t302.5 -77t129.5 -115l-72 -74q-68 70 -149.5 121t-185.5 51q-191 0 -313 -131t-122 -318v-4q0 -189 125.5 -320.5t312.5 -131.5q188 0 343 174l69 -62q-78 -86 -172 -143t-229 -64l-137 -278l-113 53l156 230q-200 24 -331.5 179
t-131.5 359z" />
    <glyph glyph-name="egrave" unicode="&#xe8;" horiz-adv-x="1196" 
d="M119 520v4q0 228 143.5 386.5t355.5 158.5t344 -155.5t132 -391.5v-14q0 -14 -2 -27h-867q11 -184 130 -297.5t280 -113.5q123 0 208 47t150 116l70 -61q-183 -197 -414 -197t-380.5 153t-149.5 392zM345.5 859.5q-108.5 -117.5 -120.5 -288.5h760q-13 172 -109 289
t-259 117t-271.5 -117.5zM367 1430l125 61l180 -272h-86z" />
    <glyph glyph-name="eacute" unicode="&#xe9;" horiz-adv-x="1196" 
d="M119 520v4q0 228 143.5 386.5t355.5 158.5t344 -155.5t132 -391.5v-14q0 -14 -2 -27h-867q11 -184 130 -297.5t280 -113.5q123 0 208 47t150 116l70 -61q-183 -197 -414 -197t-380.5 153t-149.5 392zM345.5 859.5q-108.5 -117.5 -120.5 -288.5h760q-13 172 -109 289
t-259 117t-271.5 -117.5zM707 1491l124 -61l-219 -211h-86z" />
    <glyph glyph-name="ecircumflex" unicode="&#xea;" horiz-adv-x="1196" 
d="M119 520v4q0 228 143.5 386.5t355.5 158.5t344 -155.5t132 -391.5v-14q0 -14 -2 -27h-867q11 -184 130 -297.5t280 -113.5q123 0 208 47t150 116l70 -61q-183 -197 -414 -197t-380.5 153t-149.5 392zM345.5 859.5q-108.5 -117.5 -120.5 -288.5h760q-13 172 -109 289
t-259 117t-271.5 -117.5zM567 1468h82l205 -249h-96l-152 139l-151 -139h-93z" />
    <glyph glyph-name="edieresis" unicode="&#xeb;" horiz-adv-x="1196" 
d="M119 520v4q0 228 143.5 386.5t355.5 158.5t344 -155.5t132 -391.5v-14q0 -14 -2 -27h-867q11 -184 130 -297.5t280 -113.5q123 0 208 47t150 116l70 -61q-183 -197 -414 -197t-380.5 153t-149.5 392zM345.5 859.5q-108.5 -117.5 -120.5 -288.5h760q-13 172 -109 289
t-259 117t-271.5 -117.5zM705 1382h141v-163h-141v163zM371 1382h141v-163h-141v163z" />
    <glyph glyph-name="igrave" unicode="&#xec;" horiz-adv-x="509" 
d="M205 1044h100v-1044h-100v1044zM-10 1430l125 61l180 -272h-86z" />
    <glyph glyph-name="iacute" unicode="&#xed;" horiz-adv-x="509" 
d="M205 1044h100v-1044h-100v1044zM395 1491l125 -61l-219 -211h-86z" />
    <glyph glyph-name="icircumflex" unicode="&#xee;" horiz-adv-x="509" 
d="M205 1044h100v-1044h-100v1044zM213 1468h82l205 -249h-97l-151 139l-152 -139h-92z" />
    <glyph glyph-name="idieresis" unicode="&#xef;" horiz-adv-x="509" 
d="M205 1044h100v-1044h-100v1044zM350 1382h142v-163h-142v163zM16 1382h142v-163h-142v163z" />
    <glyph glyph-name="eth" unicode="&#xf0;" horiz-adv-x="1286" 
d="M119 498v4q0 215 145.5 354t345.5 139q125 0 210 -37.5t153 -91.5l-301 426l-273 -139l-59 74l281 137l-93 131h129l56 -84l200 102l58 -73l-209 -103l223 -329q78 -115 128 -233t50 -265v-4q0 -215 -146.5 -373t-378.5 -158q-224 0 -371.5 155t-147.5 368zM1055 496v4
q0 166 -126 285.5t-306 119.5t-288 -117.5t-108 -291.5v-4q0 -168 119.5 -295t297.5 -127q179 0 295 125.5t116 300.5z" />
    <glyph glyph-name="ntilde" unicode="&#xf1;" horiz-adv-x="1255" 
d="M668 1069q195 0 306 -118.5t111 -311.5v-639h-100v621q0 162 -86 259t-243 97t-261 -105t-104 -268v-604h-101v1044h101v-194q126 219 377 219zM940 1409q-50 -190 -156 -190q-45 0 -79.5 13t-102 42t-100.5 29t-54.5 -21.5t-44.5 -81.5l-69 19q50 190 156 190
q46 0 80 -13.5t70 -28.5t68.5 -28.5t64.5 -13.5t53.5 21.5t43.5 80.5z" />
    <glyph glyph-name="ograve" unicode="&#xf2;" horiz-adv-x="1310" 
d="M119 518v4q0 223 154.5 385t382 162t382 -158.5t154.5 -384.5v-4q0 -223 -154.5 -385t-382.5 -162t-382 159.5t-154 383.5zM1083 518v4q0 192 -124.5 322.5t-306.5 130.5t-303.5 -131t-121.5 -318v-4q0 -191 124.5 -321.5t306.5 -130.5q183 0 304 129.5t121 318.5z
M391 1430l125 61l180 -272h-86z" />
    <glyph glyph-name="oacute" unicode="&#xf3;" horiz-adv-x="1310" 
d="M119 518v4q0 223 154.5 385t382 162t382 -158.5t154.5 -384.5v-4q0 -223 -154.5 -385t-382.5 -162t-382 159.5t-154 383.5zM1083 518v4q0 192 -124.5 322.5t-306.5 130.5t-303.5 -131t-121.5 -318v-4q0 -191 124.5 -321.5t306.5 -130.5q183 0 304 129.5t121 318.5z
M795 1491l125 -61l-220 -211h-86z" />
    <glyph glyph-name="ocircumflex" unicode="&#xf4;" horiz-adv-x="1310" 
d="M119 518v4q0 223 154.5 385t382 162t382 -158.5t154.5 -384.5v-4q0 -223 -154.5 -385t-382.5 -162t-382 159.5t-154 383.5zM1083 518v4q0 192 -124.5 322.5t-306.5 130.5t-303.5 -131t-121.5 -318v-4q0 -191 124.5 -321.5t306.5 -130.5q183 0 304 129.5t121 318.5z
M614 1468h82l205 -249h-96l-152 139l-151 -139h-92z" />
    <glyph glyph-name="otilde" unicode="&#xf5;" horiz-adv-x="1310" 
d="M119 518v4q0 223 154.5 385t382 162t382 -158.5t154.5 -384.5v-4q0 -223 -154.5 -385t-382.5 -162t-382 159.5t-154 383.5zM1083 518v4q0 192 -124.5 322.5t-306.5 130.5t-303.5 -131t-121.5 -318v-4q0 -191 124.5 -321.5t306.5 -130.5q183 0 304 129.5t121 318.5z
M958 1409q-50 -190 -156 -190q-46 0 -80 13t-101.5 42t-100.5 29t-54.5 -21.5t-43.5 -81.5l-70 19q50 190 156 190q45 0 80 -13.5t102.5 -42t99.5 -28.5q33 0 54.5 21.5t44.5 80.5z" />
    <glyph glyph-name="odieresis" unicode="&#xf6;" horiz-adv-x="1310" 
d="M119 518v4q0 223 154.5 385t382 162t382 -158.5t154.5 -384.5v-4q0 -223 -154.5 -385t-382.5 -162t-382 159.5t-154 383.5zM1083 518v4q0 192 -124.5 322.5t-306.5 130.5t-303.5 -131t-121.5 -318v-4q0 -191 124.5 -321.5t306.5 -130.5q183 0 304 129.5t121 318.5z
M752 1382h141v-163h-141v163zM418 1382h141v-163h-141v163z" />
    <glyph glyph-name="oslash" unicode="&#xf8;" horiz-adv-x="1310" 
d="M1192 526v-4q0 -223 -154.5 -385t-384.5 -162q-195 0 -342 123l-106 -108h-117l162 168q-131 155 -131 360v4q0 223 154.5 385t370.5 162t355 -125l107 115h117l-164 -172q133 -152 133 -361zM934 866q-122 109 -293 109t-292.5 -131t-121.5 -318v-4q0 -168 97 -289z
M1083 518v4q0 163 -96 289l-610 -635q118 -106 291 -106t294 129.5t121 318.5z" />
    <glyph glyph-name="ugrave" unicode="&#xf9;" horiz-adv-x="1255" 
d="M610 -25q-216 0 -328 118.5t-112 312.5v638h100v-620q0 -162 86 -259t243 -97t261.5 104.5t104.5 267.5v604h100v-1044h-100v195q-53 -92 -144 -156t-211 -64zM373 1419l125 62l180 -273h-86z" />
    <glyph glyph-name="uacute" unicode="&#xfa;" horiz-adv-x="1255" 
d="M610 -25q-216 0 -328 118.5t-112 312.5v638h100v-620q0 -162 86 -259t243 -97t261.5 104.5t104.5 267.5v604h100v-1044h-100v195q-53 -92 -144 -156t-211 -64zM748 1481l124 -62l-219 -211h-86z" />
    <glyph glyph-name="ucircumflex" unicode="&#xfb;" horiz-adv-x="1255" 
d="M610 -25q-216 0 -328 118.5t-112 312.5v638h100v-620q0 -162 86 -259t243 -97t261.5 104.5t104.5 267.5v604h100v-1044h-100v195q-53 -92 -144 -156t-211 -64zM590 1468h82l205 -249h-97l-151 139l-152 -139h-92z" />
    <glyph glyph-name="udieresis" unicode="&#xfc;" horiz-adv-x="1255" 
d="M610 -25q-216 0 -328 118.5t-112 312.5v638h100v-620q0 -162 86 -259t243 -97t261.5 104.5t104.5 267.5v604h100v-1044h-100v195q-53 -92 -144 -156t-211 -64zM727 1382h141v-163h-141v163zM393 1382h142v-163h-142v163z" />
    <glyph glyph-name="yacute" unicode="&#xfd;" horiz-adv-x="1204" 
d="M513 -267.5q-83 -66.5 -188 -66.5t-214 45l34 88q80 -39 150 -39t135.5 23.5t151.5 222.5l-502 1038h117l434 -933l377 933h110l-452 -1081q-70 -164 -153 -230.5zM756 1481l125 -62l-219 -211h-87z" />
    <glyph glyph-name="thorn" unicode="&#xfe;" horiz-adv-x="1351" 
d="M721 -25q-262 0 -430 250v-553h-101v1823h101v-684q167 258 430 258q199 0 353.5 -149t154.5 -394v-4q0 -242 -154.5 -394.5t-353.5 -152.5zM1120 518v4q0 204 -120 327.5t-289.5 123.5t-297.5 -128t-128 -321v-4q0 -196 128 -322t300 -126q174 0 290.5 120.5
t116.5 325.5z" />
    <glyph glyph-name="ydieresis" unicode="&#xff;" horiz-adv-x="1204" 
d="M513 -267.5q-83 -66.5 -188 -66.5t-214 45l34 88q80 -39 150 -39t135.5 23.5t151.5 222.5l-502 1038h117l434 -933l377 933h110l-452 -1081q-70 -164 -153 -230.5zM698 1382h142v-163h-142v163zM365 1382h141v-163h-141v163z" />
    <glyph glyph-name="dotlessi" unicode="&#x131;" horiz-adv-x="509" 
d="M205 1044h100v-1044h-100v1044z" />
    <glyph glyph-name="Lslash" unicode="&#x141;" horiz-adv-x="1329" 
d="M274 1434h105v-656l461 142v-99l-461 -141v-582h844v-98h-949v647l-153 -47v98l153 47v689z" />
    <glyph glyph-name="lslash" unicode="&#x142;" horiz-adv-x="632" 
d="M266 1495h101v-676l155 49v-102l-155 -49v-717h-101v688l-155 -49v102l155 47v707z" />
    <glyph glyph-name="OE" unicode="&#x152;" horiz-adv-x="2359" 
d="M911 0q-333 0 -547 202.5t-214 510.5v4q0 308 215 512.5t546 204.5h1309v-99h-883v-563h791v-98h-791v-576h893v-98h-1319zM1231 98v1237h-320q-294 0 -472.5 -176.5t-178.5 -437.5v-4q0 -260 179.5 -439.5t471.5 -179.5h320z" />
    <glyph glyph-name="oe" unicode="&#x153;" horiz-adv-x="2160" 
d="M636 -25q-100 0 -197 44t-208.5 159.5t-111.5 339.5v4q0 220 154 383.5t392 163.5t338.5 -125t131.5 -194q57 143 174.5 231t271.5 88q214 0 345.5 -155t131.5 -392v-14q0 -14 -2 -27h-866q11 -184 129 -297.5t280 -113.5q123 0 208 47t151 116l70 -61
q-80 -86 -180.5 -141.5t-249.5 -55.5t-275 84.5t-188 237.5q-100 -226 -249.5 -274t-249.5 -48zM1310.5 859.5q-108.5 -117.5 -120.5 -288.5h760q-13 171 -109.5 288.5t-258.5 117.5q-163 0 -271.5 -117.5zM1083 518v4q0 192 -124.5 322.5t-306.5 130.5t-303.5 -131
t-121.5 -318v-4q0 -191 124.5 -321.5t306.5 -130.5q183 0 304 129.5t121 318.5z" />
    <glyph glyph-name="Scaron" unicode="&#x160;" horiz-adv-x="1310" 
d="M635 1358q-156 0 -253 -78t-97 -193v-4q0 -121 85.5 -191t333.5 -121q248 -52 359 -145.5t111 -250.5v-4q0 -173 -133.5 -282t-323.5 -109q-191 0 -329 57t-267 172l69 80q175 -163 305 -188t251 -25t221 81t100 203v5q0 119 -86 188t-333 120t-358.5 142.5t-111.5 257.5
v4q0 158 130.5 267.5t330.5 109.5q156 0 269.5 -43t221.5 -131l-67 -84q-188 162 -428 162zM424 1817h96l152 -140l151 140h92l-204 -250h-82z" />
    <glyph glyph-name="scaron" unicode="&#x161;" horiz-adv-x="1017" 
d="M254 788v-4q0 -108 117 -147t177 -56q160 -46 250.5 -107.5t90.5 -184.5v-4q0 -139 -104 -222t-238 -83q-261 0 -447 151l60 80q179 -137 375 -137q106 0 178.5 53t72.5 145v4q0 119 -110.5 156t-169.5 54q-175 50 -264.5 105.5t-89.5 180.5v4q0 124 95.5 206.5
t248.5 82.5q94 0 193 -30.5t177 -84.5l-53 -84q-161 105 -321 105q-109 0 -173.5 -52.5t-64.5 -130.5zM268 1468h97l151 -139l152 139h92l-205 -249h-82z" />
    <glyph glyph-name="Ydieresis" unicode="&#x178;" horiz-adv-x="1466" 
d="M786 0h-106v567l-614 867h133l536 -770l539 770h127l-615 -865v-569zM829 1720h142v-164h-142v164zM496 1720h141v-164h-141v164z" />
    <glyph glyph-name="Zcaron" unicode="&#x17d;" horiz-adv-x="1409" 
d="M174 1337v97h1098v-60l-981 -1278h981v-96h-1133v59l981 1278h-946zM469 1817h96l152 -140l151 140h93l-205 -250h-82z" />
    <glyph glyph-name="zcaron" unicode="&#x17e;" horiz-adv-x="1134" 
d="M147 954v90h875v-57l-754 -897h754v-90h-903v57l753 897h-725zM340 1468h96l152 -139l151 139h92l-204 -249h-82z" />
    <glyph glyph-name="florin" unicode="&#x192;" horiz-adv-x="1036" 
d="M809 1354q-76 0 -120 -46t-64 -157l-52 -272h318v-93h-334l-102 -544q-25 -129 -89.5 -190.5t-181.5 -61.5q-60 0 -100 8v90q41 -8 94 -8q137 0 168 168l100 538h-223v93h240l53 278q54 287 273 287q103 0 174 -21v-90q-78 21 -154 21z" />
    <glyph glyph-name="circumflex" unicode="&#x2c6;" 
d="M471 1468h82l205 -249h-96l-152 139l-152 -139h-92z" />
    <glyph glyph-name="caron" unicode="&#x2c7;" 
d="M266 1468h96l152 -139l152 139h92l-205 -249h-82z" />
    <glyph glyph-name="breve" unicode="&#x2d8;" 
d="M510.5 1319q153.5 0 194.5 149h79q-8 -121 -82.5 -187.5t-189.5 -66.5t-189.5 67t-82.5 187h79q38 -149 191.5 -149z" />
    <glyph glyph-name="dotaccent" unicode="&#x2d9;" 
d="M438 1384h148v-165h-148v165z" />
    <glyph glyph-name="ring" unicode="&#x2da;" 
d="M371.5 1270.5q-60.5 56.5 -60.5 134.5v4q0 78 60 134t141 56t141 -56t60 -134v-4q0 -78 -60.5 -134.5t-140.5 -56.5t-140.5 56.5zM512 1280q51 0 89 37t38 88v4q0 51 -37 88t-90 37t-90 -37t-37 -88v-4q0 -51 38 -88t89 -37z" />
    <glyph glyph-name="ogonek" unicode="&#x2db;" 
d="M383 -128q0 85 29 148h88q-12 -55 -13 -114q0 -166 242 -178v-64q-176 -6 -261 58.5t-85 149.5z" />
    <glyph glyph-name="tilde" unicode="&#x2dc;" 
d="M815 1409q-49 -190 -155 -190q-46 0 -80.5 13t-102 42t-100.5 29t-54.5 -21.5t-43.5 -81.5l-70 19q49 190 155 190q46 0 80.5 -13.5t70.5 -28.5t68.5 -28.5t64.5 -13.5t53.5 21.5t43.5 80.5z" />
    <glyph glyph-name="hungarumlaut" unicode="&#x2dd;" 
d="M702 1491l113 -59l-207 -213h-88zM391 1491l113 -59l-207 -213h-88z" />
    <glyph glyph-name="Omega" unicode="&#x3a9;" horiz-adv-x="1482" 
d="M1305 1409q-211 0 -211 -264v-101h364v-92h-364v-952h-101v952h-151v92h151v103q0 180 87 267t225 87q85 0 155 -24v-95q-87 27 -155 27zM563 1409q-211 0 -211 -264v-101h365v-92h-365v-952h-100v952h-152v92h152v103q0 180 87 267t224 87q86 0 156 -24v-95
q-87 27 -156 27z" />
    <glyph glyph-name="Omega" unicode="&#x2126;" horiz-adv-x="1482" 
d="M1305 1409q-211 0 -211 -264v-101h364v-92h-364v-952h-101v952h-151v92h151v103q0 180 87 267t225 87q85 0 155 -24v-95q-87 27 -155 27zM563 1409q-211 0 -211 -264v-101h365v-92h-365v-952h-100v952h-152v92h152v103q0 180 87 267t224 87q86 0 156 -24v-95
q-87 27 -156 27z" />
    <glyph glyph-name="pi" unicode="&#x3c0;" horiz-adv-x="1699" 
d="M848 -25q-156 0 -291 58.5t-234.5 159t-156.5 234.5t-57 286v4q0 152 57 286t157.5 235t236.5 160.5t292 59.5t291 -58.5t234.5 -158.5t156.5 -234.5t57 -285.5v-4q0 -152 -57 -286t-157.5 -235.5t-236.5 -161t-292 -59.5zM1530 717v4q0 141 -51.5 265t-142.5 216
t-215 145.5t-269 53.5t-270 -54.5t-216.5 -147.5t-143.5 -217t-52 -265v-4q0 -286 195 -483t411.5 -197t341.5 54t268.5 201.5t143.5 428.5zM606 1108h289q133 0 213 -60.5t80 -175.5v-4q0 -117 -88 -182t-219 -65h-185v-263h-90v750zM1096 868q0 156 -207 156h-193v-319
h187q98 0 155.5 40.5t57.5 118.5v4z" />
    <glyph glyph-name="endash" unicode="&#x2013;" horiz-adv-x="1081" 
d="M143 662h795v-107h-795v107z" />
    <glyph glyph-name="emdash" unicode="&#x2014;" horiz-adv-x="1839" 
d="M143 662h1553v-107h-1553v107z" />
    <glyph glyph-name="quoteleft" unicode="&#x2018;" horiz-adv-x="471" 
d="M158 1202q0 96 39 151.5t131 90.5l24 -51q-66 -35 -92.5 -72t-21.5 -96h55v-174h-135v151z" />
    <glyph glyph-name="quoteright" unicode="&#x2019;" horiz-adv-x="471" 
d="M178 1260v174h135v-152q0 -96 -38.5 -151.5t-131.5 -90.5l-24 52q66 35 92.5 71.5t21.5 96.5h-55z" />
    <glyph glyph-name="quotesinglbase" unicode="&#x201a;" horiz-adv-x="471" 
d="M168 0v174h135v-151q0 -96 -39 -151.5t-131 -90.5l-24 51q66 35 92 72t22 96h-55z" />
    <glyph glyph-name="quotedblleft" unicode="&#x201c;" horiz-adv-x="839" 
d="M526 1202q0 96 39 151.5t131 90.5l25 -51q-66 -35 -92.5 -72t-22.5 -96h56v-174h-136v151zM158 1202q0 96 39 151.5t131 90.5l24 -51q-66 -35 -92.5 -72t-21.5 -96h55v-174h-135v151z" />
    <glyph glyph-name="quotedblright" unicode="&#x201d;" horiz-adv-x="839" 
d="M547 1260v174h135v-152q0 -96 -39 -151.5t-131 -90.5l-25 52q66 35 92.5 71.5t22.5 96.5h-55zM178 1260v174h135v-152q0 -96 -38.5 -151.5t-131.5 -90.5l-24 52q66 35 92.5 71.5t21.5 96.5h-55z" />
    <glyph glyph-name="quotedblbase" unicode="&#x201e;" horiz-adv-x="839" 
d="M537 0v174h135v-151q0 -96 -39 -151.5t-131 -90.5l-25 51q66 35 92.5 72t22.5 96h-55zM168 0v174h135v-151q0 -96 -39 -151.5t-131 -90.5l-24 51q66 35 92 72t22 96h-55z" />
    <glyph glyph-name="dagger" unicode="&#x2020;" horiz-adv-x="839" 
d="M385 1073l-256 -14v92l254 -14l-14 297h102l-14 -297l254 14v-92l-256 14l10 -586h-90z" />
    <glyph glyph-name="daggerdbl" unicode="&#x2021;" horiz-adv-x="880" 
d="M403 297l-253 -14v92l256 -15l-11 357l11 356l-256 -14v92l253 -14l-14 297h103l-15 -297l254 14v-92l-256 14l10 -356l-10 -357l256 15v-92l-254 14l15 -297h-103z" />
    <glyph glyph-name="bullet" unicode="&#x2022;" horiz-adv-x="962" 
d="M227 719v4q0 103 76.5 177.5t179 74.5t177.5 -76.5t75 -175.5v-4q0 -102 -73 -177t-182 -75q-106 0 -179.5 75t-73.5 177z" />
    <glyph glyph-name="ellipsis" unicode="&#x2026;" horiz-adv-x="1392" 
d="M1094 170h131v-170h-131v170zM631 170h131v-170h-131v170zM168 170h131v-170h-131v170z" />
    <glyph glyph-name="perthousand" unicode="&#x2030;" horiz-adv-x="2457" 
d="M200.5 824.5q-87.5 107.5 -87.5 254.5v4q0 151 90 259t228 108t225 -109.5t87 -253.5v-4q0 -149 -88.5 -257.5t-227.5 -108.5t-226.5 107.5zM1315 1434h110l-1052 -1434h-111zM1714 346v4q0 151 90.5 259t227.5 108t225 -109t88 -254v-4q0 -150 -89 -258t-228 -108
t-226.5 107t-87.5 255zM944 346v4q0 151 90.5 259t227.5 108t225 -109t88 -254v-4q0 -150 -89 -258t-228 -108t-226.5 107t-87.5 255zM637 1079v4q0 121 -63 200t-151 79q-87 0 -145.5 -81t-58.5 -194v-4q0 -122 62.5 -200t149.5 -78q88 0 147 79.5t59 194.5zM2033 72
q86 0 145.5 77.5t59.5 196.5v4q0 183 -83.5 231t-127.5 48q-88 0 -147 -80t-59 -195v-4q0 -187 84 -232.5t128 -45.5zM1263 72q86 0 145.5 77.5t59.5 196.5v4q0 184 -84 231.5t-128 47.5q-87 0 -146 -80t-59 -195v-4q0 -187 84 -232.5t128 -45.5z" />
    <glyph glyph-name="guilsinglleft" unicode="&#x2039;" horiz-adv-x="636" 
d="M104 514v16l328 428l76 -49l-281 -385l281 -389l-76 -49z" />
    <glyph glyph-name="guilsinglright" unicode="&#x203a;" horiz-adv-x="636" 
d="M129 135l281 385l-281 389l76 49l327 -428v-16l-327 -428z" />
    <glyph glyph-name="fraction" unicode="&#x2044;" horiz-adv-x="839" 
d="M821 1552h111l-959 -1753h-110z" />
    <glyph glyph-name="fraction" unicode="&#x2215;" horiz-adv-x="839" 
d="M821 1552h111l-959 -1753h-110z" />
    <glyph glyph-name="trademark" unicode="&#x2122;" horiz-adv-x="1413" 
d="M682 1434h76l246 -375l245 375h74v-631h-72v504l-243 -365h-11l-243 365v-504h-72v631zM260 1364h-207v70h486v-70h-207v-561h-72v561z" />
    <glyph glyph-name="radical" unicode="&#x221a;" horiz-adv-x="1992" 
d="M1305 1409q-211 0 -211 -264v-101h364v-92h-364v-952h-101v952h-151v92h151v103q0 180 87 267t225 87q85 0 155 -24v-95q-87 27 -155 27zM563 1409q-211 0 -211 -264v-101h365v-92h-365v-952h-100v952h-152v92h152v103q0 180 87 267t224 87q86 0 156 -24v-95
q-87 27 -156 27zM1688 1495h100v-1495h-100v1495z" />
    <glyph glyph-name="approxequal" unicode="&#x2248;" horiz-adv-x="1992" 
d="M1675 1454h125v-137h-125v137zM1305 1409q-211 0 -211 -264v-101h364v-92h-364v-952h-101v952h-151v92h151v103q0 180 87 267t225 87q85 0 155 -24v-95q-87 27 -155 27zM563 1409q-211 0 -211 -264v-101h365v-92h-365v-952h-100v952h-152v92h152v103q0 180 87 267t224 87
q86 0 156 -24v-95q-87 27 -156 27zM1688 1044h100v-1044h-100v1044z" />
    <glyph glyph-name="NUL" horiz-adv-x="0" 
 />
    <glyph glyph-name="apple" horiz-adv-x="1980" 
d="M207 0v1536h1571v-1536h-1571zM1747 -213l-6 41l-21 -43h-4l-20 43l-6 -41h-13l13 70h2l26 -54l27 54h2l12 -70h-12zM1651 -178q0 -37 -35 -37t-35 35q0 16 10.5 26.5t25.5 10.5t24.5 -10.5t9.5 -24.5zM1530 -215q-37 0 -37 35q0 16 10.5 26.5t24.5 10.5t24 -7l-4 -10
q-6 6 -17 6t-18.5 -7t-7.5 -17q0 -27 27 -27q8 0 20 8l-2 -12q-6 -6 -20 -6zM1411 -213h-12v29l-29 39l12 2l23 -31l18 29h15l-27 -39v-29zM1331 -213v31h-33v-31h-12v68h12v-27h33v27h12v-68h-12zM1253 -168q0 -25 -34 -25v-20h-13v68q47 6 47 -23zM1167 -213l-8 16h-29
l-6 -16h-12l31 70h4l33 -70h-13zM1053 -190v-23h-13v68q47 6 47 -21q0 -14 -14 -20l21 -27h-15l-16 23h-10zM979 -215q-37 0 -37 25.5t11.5 36t25.5 10.5t27 -9l-5 -10q-8 8 -22 8q-25 0 -25 -26t27 -25q4 0 12 4v15h-18v10h31v-31q-12 -8 -27 -8zM880.5 -215
q-34.5 0 -34.5 35q0 16 10 26.5t26 10.5t24.5 -10.5t8.5 -24.5q0 -37 -34.5 -37zM819 -168q0 -25 -35 -25v-20h-12v68q47 6 47 -23zM719 -213h-12v29l-29 39l12 2l23 -31l18 29h14l-26 -39v-29zM662 -156h-25v-57h-12v57h-25v11h62v-11zM522 -215h-2l-22 47l-21 -47h-2
l-24 70l12 2l14 -47l21 47h2l20 -47l15 45h12zM408 -215h-2l-23 47l-21 -47h-2l-24 70l12 2l14 -47l21 47h2l21 -47l14 45h12zM293 -215h-2l-23 47l-20 -47h-2l-25 70l12 2l15 -47l20 47h2l21 -47l14 45h12zM1466 -207q0 -8 -8 -8t-8 8t8 8t8 -8zM582 -207q0 -8 -8.5 -8
t-8.5 8t8.5 8t8.5 -8zM1094 1423q6 0 6 -6v-47q0 -10 -4 -11t-6 1v-4h34v4q-4 -2 -7 -1t-3 11v47q0 6 6 6t14 -7t7 -11h4v8q0 4 -1 8t-1 9q-4 -2 -35 -2.5t-37 2.5l-2 -17v-8h4q9 18 21 18zM981 1360q-10 0 -10 10v21h35v-21q0 -10 -7 -10q-2 -2 -4 0v-4h37v4q-12 -6 -12 10
v43q0 6 6 10h6v4h-37v-4h4q6 -6 7 -10v-18h-35v18q0 6 4 10h6v4h-35v-4h4q6 -6 6 -10v-43q0 -4 -2 -5t-4 -3t-4 -2v-4h35v4zM854 1378q0 10 12 13h8v-23q0 -6 -8 -6h-8q-8 0 -14 6t-6 12l-4 -2l4 -22h61v4q-4 -2 -7 -1t-3 11v43q0 6 4 10h6v4h-59l-4 -20l4 -2q0 4 4 10t14 6
h8q8 0 8 -6v-20h-8q-12 0 -12 10h-4v-27h4zM1694 1278h-1403v-12h1403v12zM1371 1061q54 0 54 48q0 28 -23.5 51.5t-44.5 23.5q-54 0 -54 -45q0 -33 23.5 -55.5t44.5 -22.5zM1206 1100q0 25 -28 35q10 6 10 17t-11 21.5t-35 10.5t-24 -23q0 -12 9 -12t9.5 6t-3 7t-3.5 8
t15 8q20 0 20 -25q0 -8 -4 -12q-33 3 -33 -11t14 -14t25 10q13 -10 13 -34t-25 -24.5t-25 17.5q0 6 7 7l10 -5q8 0 8 10.5t-16 10.5t-17 -21q0 -27 42 -27t42 40zM604 1100q0 25 -29 35q24 15 6.5 32t-41.5 17t-24 -23q0 -12 9 -12t9.5 6t-3 7t-3.5 8t15 8q20 0 20 -25
q0 -8 -4 -12q-33 3 -33 -11t14 -14t25 10q13 -10 13 -34t-25 -24.5t-25 17.5q0 6 7 7l10 -5q8 0 8 10.5t-16 10.5t-17 -21q0 -27 42 -27t42 40zM1679 1069q-16 0 -20 16l-14 72q-3 13 14 17l-2 6h-58l3 -6q15 0 18 -17l6 -31h-49l-6 31q-3 13 14 17l-2 6h-59l2 -6
q17 0 20 -17l15 -72q1 -10 -5 -13t-10 -3l2 -6h60l-2 6q-17 0 -21 16l-6 33h49l6 -33q3 -16 -14 -16l2 -6h59zM942 1098q0 22 16 22h9l6 -35q3 -16 -15 -16l3 -6h59l-2 6q-17 0 -21 16l-14 72q-3 13 14 17l-2 6h-92v-35h8q-2 6 2 12q4 14 25 14h8q10 0 12 -12l7 -33h-9
q-18 0 -24 19h-6l10 -47h6zM295 1149q0 -26 39 -31l-19 -33q-8 -16 -28 -16l2 -6h39l24 47q2 6 10 6l7 -31q1 -10 -5 -13t-10 -3l2 -6h60l-2 6q-17 0 -21 16l-14 72q-3 13 14 17l-2 6h-55q-41 0 -41 -31zM705 1075q1 -26 29 -26t32 13t20 13q6 -14 20 -14t13 5q0 15 -26 19
q-8 6 -9.5 21.5t-7 46.5t-43.5 31q-10 0 -18 -7.5t-8 -15.5t9 -8t9 12.5t12 12.5t17 -36.5t24 -56.5q-23 0 -30 -13t-17 -13t-10 8l4 10q0 10 -10 10t-10 -12zM1694 985h-1403v-12h1403v12zM1694 901h-301v-127h73v57h23v-133h-29v-67h166v67h-29v133h23v-57h74v127z
M1327 901h-166v-70h23l-31 -47l-31 47h21v70h-127v-70h24l76 -94v-39h-29v-67h166v67h-30v41l75 92h29v70zM938 698h-29v133h29v70h-197q-45 0 -70.5 -23.5t-25.5 -58.5t25.5 -58.5t70.5 -23.5h62v-39h-31v-67h166v67zM580 698h-29v133h29v70h-289v-127h84v57h67v-40h-49
v-50h49v-43h-67v58h-84v-125h289v67zM1694 567h-1403v-12h1403v12zM1436 348q54 0 55 48q0 28 -23.5 51.5t-45.5 23.5q-54 0 -54 -45q0 -33 23 -55.5t45 -22.5zM369 434q0 22 18 21q10 0 25 -15l4 4q-16 27 -37 27q-31 0 -29 -47q-14 47 -43 47q-24 0 -24 -25l6 -2
q0 12 18 12q31 1 47 -67q5 -18 -1.5 -25.5t-10.5 -5.5l2 -8h57l-2 8q-16 -8 -20 19q-10 35 -10 57zM1608 385q0 21 16 23h8l6 -35q2 -9 -4 -13t-10 -4l2 -6h60l-3 6q-16 0 -20 17l-14 71q-2 10 4 14t10 3l-2 6h-92v-35h8q-2 6 2 12q4 14 25 15h8q10 0 12 -13l6 -32h-8
q-16 0 -25 18h-6l11 -47h6zM1224 358q-34 0 -44 45l-9 39q-1 14 5 18t10 1v6h-49l2 -6q19 0 22 -19l8 -39q14 -55 58 -55q35 0 39 16.5t0 32.5l-11 45q-7 13 2 17t15 2l-2 6h-60l2 -6q18 0 21 -19l10 -43q4 -20 2 -30.5t-21 -10.5zM1069 356q-2 0 -9 3t-9 18l-15 65
q-3 19 17 19l-2 6h-29l-59 -86l-11 61q-3 19 15 19l-2 6h-43l2 -6q12 0 18 -19l16 -92l7 -2l61 90l12 -61q3 -21 -12 -21l2 -6h43zM762 467q-18 0 -34.5 -11.5t-16.5 -39.5t22.5 -47t48.5 -19h66l-2 8q-16 -8 -21 19l-16 63q-6 18 16 21l-2 6h-61zM508 436q0 -25 39 -30
l-19 -33q-8 -17 -28 -17l2 -6h39l24 47q2 6 10 6l7 -30q2 -9 -4 -13t-11 -4l2 -6h60l-2 6q-17 0 -21 17l-14 71q-2 10 4 14t10 3l-2 6h-55q-41 0 -41 -31zM1694 272h-1403v-12h1403v12zM1333 162q10 0 13 -12v-58h6l51 58v-41q0 -3 -4 -7t-6 -4v-4h28v4q-12 0 -12 11v41
q0 6 12 12v4h-20l-49 -53v37q0 12 12 12v4h-31v-4zM1251 117q0 12 13 12h8v-23q0 -6 -8 -6h-9q-8 0 -14 6t-6 13l-4 -2l4 -23h61v4q-4 -2 -7 -1t-3 12v43q0 6 4 10h6v4h-59l-4 -21l4 -2q0 5 4 11t14 6h9q8 0 8 -6v-21h-8q-13 0 -13 10h-4v-26h4zM1139 133q8 17 20 29v4h-53
l2 -4q2 0 14 -12l6 -11l-14 -26l-16 37q-4 6 -1 9t5 3v4h-27v-4q6 0 12 -12l27 -56h2q2 -2 2 0l17 33l18 -33h2l25 56q2 4 5 6t5 4t4 2v4h-31v-4q7 0 4 -10l-18 -39zM963 98q-11 0 -11 13v16l17 25q2 4 5 5t5 3t4 2v4h-31v-4q9 0 2 -10l-12 -19l-12 19q-4 4 -1 7t7 3v4h-31
v-4q5 0 17 -10l16 -25v-16q0 -5 -4 -9t-6 -4v-4h35v4zM870 141.5q0 26.5 -41 26.5t-41 -26.5t10.5 -38t31 -11.5t30.5 11.5t10 38zM735 150q0 12 10 12v4h-36q-27 0 -27 -19q0 -10 18 -18l-14 -20q-4 -4 -7 -5.5t-5 -3.5l-4 -2v-4h22l15 25q6 8 14 8v-18q0 -4 -2 -5.5
t-4 -3.5t-4 -2v-4h34v4q-10 0 -10 11v41zM608 111q0 -13 -12 -13v-4h37v4q-12 0 -12 13v41q0 10 12 10v4h-37v-4q2 0 6 -2q6 -6 6 -8v-19q-4 0 -8 4l-16 17q-6 2 -3 5t5 3v4h-29v-4q6 0 9 -3t7 -5l21 -19l-27 -26q-3 -3 -7 -6t-7 -5v-4h35v4q-10 0 -4 11l16 16q4 4 8 4v-18z
M1219 -182q22 0 22 14t-22 12v-26zM1075 -167q0 15 -22 11v-24q22 -2 22 13zM784 -182q23 0 23 14t-23 12v-26zM1145 -164l-10 -24h20zM1615.5 -205.5q22.5 0.5 22.5 26.5t-22.5 25.5t-22.5 -26.5t22.5 -25.5zM880.5 -205.5q22.5 0.5 22.5 26.5t-22.5 25.5t-22.5 -26.5
t22.5 -25.5zM350 1122q-16 0 -23.5 10.5t-7.5 20.5q0 18 16.5 18t18.5 -10l6 -39h-10zM1137 1129q0 5 9 5t13 -1q-6 -8 -14 -8.5t-8 4.5zM535 1129q0 5 9 5t13 -1q-6 -8 -14 -8.5t-8 4.5zM1401 1099q-1 -30 -21 -30t-36.5 23.5t-16.5 53.5q1 30 21 30t36.5 -23.5t16.5 -53.5
zM780 786q-27 0 -26.5 22.5t26.5 22.5h23v-45h-23zM563 410q-16 0 -23.5 10t-7.5 20q0 18 16.5 18.5t18.5 -9.5l6 -39h-10zM1466 386q0 -30 -20 -30t-36.5 23.5t-16.5 53.5t20 30t36.5 -23.5t16.5 -53.5zM786 358q-23 0 -38 20.5t-15 50.5t29 30h12q6 -2 7 -3t5 -12l19 -71
q0 -14 -8 -15h-11zM1132 162q9 0 1 -19q-10 19 -1 19zM721 131h-6q-16 0 -17 16q0 13 12 13t11 -8v-21zM829.5 164q24.5 0 24.5 -34t-24 -34t-25 34q0 34 24.5 34z" />
  </font>
</defs>
</svg>
